Доктор Стрэндж

Лицензия

Добыча

Дубляж

Дом дракона

1 сезон

Тор

Дубляж

В эфире

Дубляж

Там, где раки поют

MVO

Властелин колец

1 сезон

Deluxe

pack

Рекомендуем

30

Пиратка

ВАЖНО

ВАЖНО

Ghostwire

Пиратка

jed

RePack

nioh2

RePack

RDR2

RePack

NEED FOR SPEED™ PAYBACK

RePack

скачать торрент

Кинопоиск HD

Острые козырьки 6 сезон

6 сезон

FAR CRY 6

RePack

скачать торрент

Лицензия

скачать торрент

MVO

1

1 сезон

скачать торрент

1 сезон

скачать торрент

Лицензия

  

Код 8 / Code 8 (Джефф Чан) [2019, Фантастика, боевик, WEB-DLRip-AVC] Дубляж [iTunes]

Код 8 через торрент piratbit.org

Размер: 1.48 GB | Добавлен: 2 года 11 мес. назад | Торрент скачан:637 раз
Смотреть онлайн | Скачать   

14-12-2019 04:11 Код 8 Скачать торрент  

Код 8 / Code 8
Год выпуска: 2019
Страна: Канада
Студия: Colony Pictures Inc.
Жанр: Фантастика, боевик
Продолжительность: 01:34:22
Перевод: Дублированный | iTunes
Субтитры: Русские (форс., полные)

Режиссер: Джефф Чан

rating

В ролях: Стивен Амелл, Робби Амелл, Кари Матчетт, Лайсла Де Оливейра, Грег Брайк, Сон Ган, Питер Аутербридж, Шон Бенсон, Аарон Абрамс, Алекс Маллари мл.

Описание: В недалеком будущем существует небольшой процент населения Земли, обладающего сверхспособностями. Власти пытаются контролировать особенных людей, а остальные боятся их и презирают. Добродушный парень, обладающий способностью генерировать в себе энергию огромной мощности, отчаянно пытается перестать быть изгоем и встроиться в общество.

Качество: WEB-DLRip-AVC
Формат: MKV

Видео: 1024x428 (2.40:1), 25,000 fps, x264 ~1 859 kbps avg, 0.170 bit/pixel
Аудио: 48 kHz, AC3 Dolby Digital, 3/2 (L,C,R,l,r) + LFE ch, ~384.00 kbps avg | RUS (iTunes)
скриншот  скриншот  скриншот  скриншот  

Общее
Уникальный идентификатор : 138414493680833363478464928589725115909 (0x6821A96C7E08EB7D5162E50667152605)
Полное имя : F:\OlLanDGroup\Code.8.2019.WEB-DLRip(AVC).OllanDGroup.mkv
Формат : Matroska
Версия формата : Version 4 / Version 2
Размер файла : 1,48 Гбайт
Продолжительность : 1 ч. 34 м.
Общий поток : 2245 Кбит/сек
Название фильма : Code 8 2019 #TorpedoUK#
Дата кодирования : UTC 2019-12-13 12:23:56
Программа кодирования : mkvmerge v29.0.0 ('Like It Or Not') 64-bit
Библиотека кодирования : libebml v1.3.6 + libmatroska v1.4.9

Видео
Идентификатор : 1
Формат : AVC
Формат/Информация : Advanced Video Codec
Профиль формата : High@L4.1
Параметр CABAC формата : Да
Параметр ReFrames формата : 10 кадров
Идентификатор кодека : V_MPEG4/ISO/AVC
Продолжительность : 1 ч. 34 м.
Битрейт : 1859 Кбит/сек
Ширина : 1024 пикселя
Высота : 428 пикселей
Соотношение сторон : 2,40:1
Режим частоты кадров : Постоянный
Частота кадров : 25,000 кадров/сек
Цветовое пространство : YUV
Субдискретизация насыщенности : 4:2:0
Битовая глубина : 8 бит
Тип развёртки : Прогрессивная
Бит/(Пиксели*Кадры) : 0.170
Размер потока : 1,23 Гбайт (83%)
Библиотека кодирования : x264 core 146 r2538 121396c
Настройки программы : cabac=1 / ref=10 / deblock=1:-2:-3 / analyse=0x3:0x113 / me=umh / subme=11 / psy=1 / psy_rd=0.90:0.10 / mixed_ref=1 / me_range=48 / chroma_me=1 / trellis=2 / 8x8dct=1 / cqm=0 / deadzone=21,11 / fast_pskip=1 / chroma_qp_offset=-6 / threads=6 / lookahead_threads=1 / sliced_threads=0 / nr=0 / decimate=1 / interlaced=0 / bluray_compat=0 / constrained_intra=0 / bframes=11 / b_pyramid=2 / b_adapt=2 / b_bias=0 / direct=3 / weightb=1 / open_gop=0 / weightp=2 / keyint=250 / keyint_min=25 / scenecut=40 / intra_refresh=0 / rc_lookahead=40 / rc=2pass / mbtree=0 / bitrate=1859 / ratetol=1.0 / qcomp=0.60 / qpmin=0 / qpmax=69 / qpstep=4 / cplxblur=20.0 / qblur=0.5 / vbv_maxrate=50000 / vbv_bufsize=62500 / nal_hrd=none / filler=0 / ip_ratio=1.40 / pb_ratio=1.30 / aq=1:1.00
Язык : English
Default : Да
Forced : Нет

Аудио
Идентификатор : 2
Формат : AC-3
Формат/Информация : Audio Coding 3
Расширение режима : CM (complete main)
Параметр Endianness формата : Big
Идентификатор кодека : A_AC3
Продолжительность : 1 ч. 34 м.
Вид битрейта : Постоянный
Битрейт : 384 Кбит/сек
Каналы : 6 каналов
Расположение каналов : Front: L C R, Side: L R, LFE
Частота : 48,0 КГц
Частота кадров : 31,250 кадров/сек (1536 spf)
Битовая глубина : 16 бит
Метод сжатия : С потерями
Размер потока : 259 Мбайт (17%)
Заголовок : Дубляж [iTunes]
Язык : Russian
Default : Да
Forced : Нет

Текст #1
Идентификатор : 3
Формат : UTF-8
Идентификатор кодека : S_TEXT/UTF8
Идентификатор кодека/Информация : UTF-8 Plain Text
Продолжительность : 13 м. 21 с.
Битрейт : 0 бит/сек
Count of elements : 2
Размер потока : 35,0 байт (0%)
Заголовок : Forced
Язык : Russian
Default : Да
Forced : Нет

Текст #2
Идентификатор : 4
Формат : UTF-8
Идентификатор кодека : S_TEXT/UTF8
Идентификатор кодека/Информация : UTF-8 Plain Text
Продолжительность : 1 ч. 23 м.
Битрейт : 79 бит/сек
Count of elements : 990
Размер потока : 48,7 Кбайт (0%)
Заголовок : Full
Язык : Russian
Default : Нет
Forced : Нет

Меню
00:00:00.000 : en:Глава 1
00:02:45.800 : en:Глава 2
00:08:58.240 : en:Глава 3
00:13:29.039 : en:Глава 4
00:19:42.838 : en:Глава 5
00:26:32.237 : en:Глава 6
00:34:02.677 : en:Глава 7
00:41:36.836 : en:Глава 8
00:46:35.796 : en:Глава 9
00:53:07.076 : en:Глава 10
01:02:45.715 : en:Глава 11
01:07:45.595 : en:Глава 12
01:10:55.995 : en:Глава 13
01:17:25.314 : en:Глава 14
01:22:30.593 : en:Глава 15




Скачать Код 8 через торрент https://pic1.kartinco.top/images/61/stazu.jpg Скачать, смотреть онлайн Код 8 бесплантно в хорошем качестве Описание: В недалеком будущем существует небольшой процент населения Земли, обладающего сверхспособностями. Власти пытаются контролировать ... 9.9 10 12
Торрент: Зарегистрирован [2019-12-14 04:11] · скачан: 637 раз
Статус: √ проверено
Размер: 1.48 GB
Как cкачать? Как скачать Код 8 через торрент | UTorrent

% Раздел Тема Автор DL S | L
Фильмы (WEB-DL 720p, 1080p) [ 3.51 GB ] Код 8 / Code 8 | iTunes | 1080p bober100 Скачать
1 | 0
Фильмы 2019-2020 [DVDrip, WEB-DLRip, HDrip] (DUB, MVO) [ 1.42 GB ] Код 8 / Code 8 | Лицензия | BDRip Twi7ter Скачать
6 | 1
Фильмы (WEB-DL 720p, 1080p) [ 3.18 GB ] Код 8 / Code 8 | iTunes | 720p bober100 Скачать
1 | 0
Фильмы [HD 720p, 1080p] (Хороший звук DUB, MVO) [ 10.86 GB ] Код 8 / Code 8 | iTunes | 1080p bober100 Скачать
1 | 0
Фильмы (Blu-ray, BD-Remux, HDDVD) [ 21.26 GB ] Код 8 / Code 8 | iTunes | BD Remux 1080p bober100 Скачать
2 | 0
Фильмы [HD 720p, 1080p] (Хороший звук DUB, MVO) [ 5.11 GB ] Код 8 / Code 8 | iTunes | 720p bober100 Скачать
1 | 0
Фильмы 2019-2020 [DVDrip, WEB-DLRip, HDrip] (DUB, MVO) [ 743 MB ] Код 8 / Code 8 | iTunes | BDRip bober100 Скачать
1 | 0

28-11-2019 20:33  


Отключить вcю реклaмy на сайте, в т.ч. и в плеере онлайн просмотра!

    Дорогой пользователь! Огромная просьба, поблагодарите релизера, оцените раздачу и оставьте свои комментарий, если Вы скачали Код 8 через торрент бесплатно!!
    Комментировать посты могут только пользователи прошедшие не сложную регистрацию
    Показать сообщения:    


    Код 8 через торрент
    Скачать бесплатно Код 8
    Код 8 скачать торрент
    Код 8 смотреть онлайн
    Cкачать фильм Код 8 бесплатно
    Код 8 скачать торрент в хорошем качестве
    Код 8 смотреть онлайн бесплатно в хорошем качестве
    Вы не можете начинать темы
    Вы не можете отвечать на сообщения
    Вы не можете редактировать свои сообщения
    Вы не можете удалять свои сообщения
    Вы не можете голосовать в опросах
    Вы не можете прикреплять файлы к сообщениям
    Вы можете скачивать файлы
    Код 8 / Code 8 [2019, Фантастика, боевик, WEB-DLRip-AVC] Дубляж [iTunes] смотреть онлайн, скачать торрент picoco.icu