Достать ножи: Стеклянная луковица

MVO

Добыча

Дубляж

Уэнсдэй

1 сезон

Тор

Дубляж

13 клиническая

1 сезон

Жестокая ночь

MVO

Одни из нас

1 сезон

Deluxe

pack

Рекомендуем

30

Пиратка

ВАЖНО

ВАЖНО

Ghostwire

Пиратка

jed

RePack

nioh2

RePack

RDR2

RePack

NEED FOR SPEED™ PAYBACK

RePack

скачать торрент

Кинопоиск HD

Острые козырьки 6 сезон

6 сезон

FAR CRY 6

RePack

скачать торрент

Лицензия

скачать торрент

MVO

1

1 сезон

скачать торрент

1 сезон

скачать торрент

Лицензия

  

Белоснежка и охотник / Snow White and the Huntsman (Руперт Сандерс) [2012, фэнтези, боевик, драма, UHD BDRemux 2160p] [Расширенная версия] Дубляж [Лицензия] + 2xAVO

Белоснежка и охотник через торрент piratbit.org

Размер: 57.52 GB | Добавлен: 3 года 1 мес. назад | Торрент скачан:27 раз
Смотреть онлайн | Скачать | Поддержите нас   

16-12-2019 05:08 Белоснежка и охотник Скачать торрент  

Белоснежка и охотник / Snow White and the Huntsman««Лишь одна будет править»»

Год выпуска: 2012
Страна: США
Жанр: фэнтези, боевик, драма, приключения
Продолжительность: 02:11:28
Перевод 1: Профессиональный (дублированный) Blu-Ray
Перевод 2: Авторский (одноголосый закадровый) Ю. Сербин
Перевод 3: Авторский (одноголосый закадровый) В. Горчаков
Субтитры: русские (Blu-Ray, Е. Воронин, А. Кисиленко), английские (full, SDH, Commentary)
Режиссер: Руперт Сандерс

В ролях:

Кристен Стюарт (Snow White), Крис Хемсворт (The Huntsman), Шарлиз Терон (Ravenna), Сэм Клафлин (William), Сэм Спруэлл (Finn), Иэн МакШейн (Beith), Боб Хоскинс (Muir), Рэй Уинстон (Gort), Ник Фрост (Nion), Эдди Марсан (Duir), Тоби Джонс (Coll), Джонни Харрис (Quert)
Описание:
Тьма приближается. Она прячется в лесах, спускается с гор, застилает небо. Никто не укроется от магического зеркала Королевы, живущей в неприступном замке, охраняемом бесчисленной армией. Но над Белоснежкой злые чары не властны. И тогда Королева отправляет Охотника, чтобы он принес ей сердце соперницы. Но очарованный Белоснежкой, он встает на ее сторону. Грядет великая битва. Лишь одна будет править.
Рейтинг:

MPAA: PG-13 - Детям до 13 лет просмотр не желателен
Качество: UHD BDRemux 2160p | Расширенная версия
Формат: MKV
Видео: MPEG-H HEVC Video / 48842 kbps / 3840x2160 / 23.976 fps / 16:9 / Main 10 @ Level 5.1 @ High / 4:2:0 / 10 bits / HDR10 / BT.2020 /
Аудио 1: Russian AC3 / 5.1 / 48 kHz / 448 kbps |Дубляж, Blu-Ray|
Аудио 2: Russian DTS-HD Master Audio / 7.1 / 48 kHz / 4687 kbps / 24 bits (DTS Core: 5.1 / 48 kHz / 1509 kbps / 24 bits) |Ю. Сербин|
Аудио 3: Russian DTS-HD Master Audio / 7.1 / 48 kHz / 4658 kbps / 24 bits (DTS Core: 5.1 / 48 kHz / 1509 kbps / 24 bits) |В. Горчаков|
Аудио 3: English DTS:X/DTS-HD Master Audio / 7.1-X / 48 kHz / 3810 kbps / 24-bit (DTS Core: 5.1 / 48 kHz / 1509 kbps / 24-bit) |original|
Аудио 4: English AC3 / 2.0 / 48 kHz / 192 kbps |Commentary by director Rupert Sanders, visual effects supervisor Cedric Nicolas-Troyan and co-editor Neil Smith|
Навигация по главам: есть

Общее
Уникальный идентификатор : 259826848596924665346393563472113138817 (0xC378D4AFC21EEC87D89D88994EA77C81)
Полное имя : H:\UHD\Белоснежка и охотник.2012.Extended.UHD.Blu-Ray.Remux.2160p.mkv
Формат : Matroska
Версия формата : Version 4
Размер файла : 57,5 Гбайт
Продолжительность : 2 ч. 11 м.
Режим общего битрейта : Переменный
Общий поток : 62,6 Мбит/сек
Дата кодирования : UTC 2019-12-15 15:57:12
Программа кодирования : mkvmerge v41.0.0 ('Smarra') 64-bit
Библиотека кодирования : libebml v1.3.9 + libmatroska v1.5.2
Attachments : poster.jpg

Видео
Идентификатор : 1
Формат : HEVC
Формат/Информация : High Efficiency Video Coding
Профиль формата : Main 10@L5.1@High
HDR_Format/String : SMPTE ST 2086, HDR10 compatible
Идентификатор кодека : V_MPEGH/ISO/HEVC
Продолжительность : 2 ч. 11 м.
Битрейт : 48,8 Мбит/сек
Ширина : 3840 пикселей
Высота : 2160 пикселей
Соотношение сторон : 16:9
Режим частоты кадров : Постоянный
Частота кадров : 23,976 (24000/1001) кадра/сек
Цветовое пространство : YUV
Субдискретизация насыщенности : 4:2:0 (Type 2)
Битовая глубина : 10 бит
Бит/(Пиксели*Кадры) : 0.246
Размер потока : 44,8 Гбайт (78%)
Библиотека кодирования : ATEME Titan KFE 3.7.3 (4.7.3.1003)
Default : Да
Forced : Нет
Цветовой диапазон : Limited
Основные цвета : BT.2020
Характеристики трансфера : PQ
Коэффициенты матрицы : BT.2020 non-constant
MasteringDisplay_ColorPrimaries : Display P3
MasteringDisplay_Luminance : min: 0.0050 cd/m2, max: 1000 cd/m2
MaxCLL : 1000 cd/m2
MaxFALL : 400 cd/m2

Аудио #1
Идентификатор : 2
Формат : AC-3
Формат/Информация : Audio Coding 3
Коммерческое название : Dolby Digital
Идентификатор кодека : A_AC3
Продолжительность : 2 ч. 11 м.
Вид битрейта : Постоянный
Битрейт : 448 Кбит/сек
Каналы : 6 каналов
ChannelLayout : L R C LFE Ls Rs
Частота : 48,0 КГц
Частота кадров : 31,250 кадров/сек (1536 SPF)
Метод сжатия : С потерями
Размер потока : 421 Мбайт (1%)
Заголовок : Дубляж, Blu-Ray
Язык : Russian
ServiceKind/String : Complete Main
Default : Да
Forced : Нет

Аудио #2
Идентификатор : 3
Формат : DTS XLL
Формат/Информация : Digital Theater Systems
Коммерческое название : DTS-HD Master Audio
Идентификатор кодека : A_DTS
Продолжительность : 2 ч. 11 м.
Вид битрейта : Переменный
Битрейт : 4687 Кбит/сек
Каналы : 8 каналов
ChannelLayout : C L R LFE Lb Rb Lss Rss
Частота : 48,0 КГц
Частота кадров : 93,750 кадра/сек (512 SPF)
Битовая глубина : 24 бит
Метод сжатия : Без потерь
Размер потока : 4,30 Гбайт (7%)
Заголовок : Ю. Сербин
Язык : Russian
Default : Нет
Forced : Нет

Аудио #3
Идентификатор : 4
Формат : DTS XLL
Формат/Информация : Digital Theater Systems
Коммерческое название : DTS-HD Master Audio
Идентификатор кодека : A_DTS
Продолжительность : 2 ч. 11 м.
Вид битрейта : Переменный
Битрейт : 4658 Кбит/сек
Каналы : 8 каналов
ChannelLayout : C L R LFE Lb Rb Lss Rss
Частота : 48,0 КГц
Частота кадров : 93,750 кадра/сек (512 SPF)
Битовая глубина : 24 бит
Метод сжатия : Без потерь
Размер потока : 4,28 Гбайт (7%)
Заголовок : В. Горчаков
Язык : Russian
Default : Нет
Forced : Нет

Аудио #4
Идентификатор : 5
Формат : DTS XLL X
Формат/Информация : Digital Theater Systems
Коммерческое название : DTS-HD Master Audio
Идентификатор кодека : A_DTS
Продолжительность : 2 ч. 11 м.
Вид битрейта : Переменный
Битрейт : 3810 Кбит/сек
Каналы : 8 каналов
Channel(s)_Original : Object Based
ChannelLayout_Original : Object Based
Частота : 48,0 КГц
Частота кадров : 93,750 кадра/сек (512 SPF)
Битовая глубина : 24 бит
Размер потока : 3,50 Гбайт (6%)
Язык : English
Default : Нет
Forced : Нет

Аудио #5
Идентификатор : 6
Формат : AC-3
Формат/Информация : Audio Coding 3
Коммерческое название : Dolby Digital
Идентификатор кодека : A_AC3
Продолжительность : 2 ч. 11 м.
Вид битрейта : Постоянный
Битрейт : 192 Кбит/сек
Каналы : 2 канала
ChannelLayout : L R
Частота : 48,0 КГц
Частота кадров : 31,250 кадров/сек (1536 SPF)
Метод сжатия : С потерями
Размер потока : 181 Мбайт (0%)
Заголовок : Commentary by director Rupert Sanders, visual effects supervisor Cedric Nicolas-Troyan and co-editor Neil Smith
Язык : English
ServiceKind/String : Complete Main
Default : Нет
Forced : Нет

Текст #1
Идентификатор : 7
Формат : UTF-8
Идентификатор кодека : S_TEXT/UTF8
Идентификатор кодека/Информация : UTF-8 Plain Text
Продолжительность : 2 ч. 10 м.
Битрейт : 40 бит/сек
ElementCount : 887
Размер потока : 39,2 Кбайт (0%)
Заголовок : Blu-Ray
Язык : Russian
Default : Нет
Forced : Нет

Текст #2
Идентификатор : 8
Формат : UTF-8
Идентификатор кодека : S_TEXT/UTF8
Идентификатор кодека/Информация : UTF-8 Plain Text
Продолжительность : 2 ч. 1 м.
Битрейт : 44 бит/сек
ElementCount : 741
Размер потока : 39,8 Кбайт (0%)
Заголовок : Е. Воронин
Язык : Russian
Default : Нет
Forced : Нет

Текст #3
Идентификатор : 9
Формат : UTF-8
Идентификатор кодека : S_TEXT/UTF8
Идентификатор кодека/Информация : UTF-8 Plain Text
Продолжительность : 2 ч. 0 м.
Битрейт : 45 бит/сек
ElementCount : 911
Размер потока : 40,6 Кбайт (0%)
Заголовок : Анастасия Кисиленко (Medveditsa)
Язык : Russian
Default : Нет
Forced : Нет

Текст #4
Идентификатор : 10
Формат : UTF-8
Идентификатор кодека : S_TEXT/UTF8
Идентификатор кодека/Информация : UTF-8 Plain Text
Продолжительность : 1 ч. 59 м.
Битрейт : 26 бит/сек
ElementCount : 917
Размер потока : 23,5 Кбайт (0%)
Заголовок : full
Язык : English
Default : Нет
Forced : Нет

Текст #5
Идентификатор : 11
Формат : UTF-8
Идентификатор кодека : S_TEXT/UTF8
Идентификатор кодека/Информация : UTF-8 Plain Text
Продолжительность : 2 ч. 1 м.
Битрейт : 29 бит/сек
ElementCount : 1058
Размер потока : 25,9 Кбайт (0%)
Заголовок : SDH
Язык : English
Default : Нет
Forced : Нет

Текст #6
Идентификатор : 12
Формат : UTF-8
Идентификатор кодека : S_TEXT/UTF8
Идентификатор кодека/Информация : UTF-8 Plain Text
Продолжительность : 2 ч. 3 м.
Битрейт : 131 бит/сек
ElementCount : 2195
Размер потока : 118 Кбайт (0%)
Заголовок : Commentary by director Rupert Sanders, visual effects supervisor Cedric Nicolas-Troyan and co-editor Neil Smith
Язык : English
Default : Нет
Forced : Нет

Меню
00:00:00.000 : :Chapter 01
00:05:05.054 : :Chapter 02
00:10:26.792 : :Chapter 03
00:19:48.854 : :Chapter 04
00:27:46.456 : :Chapter 05
00:32:40.458 : :Chapter 06
00:38:04.490 : :Chapter 07
00:44:02.097 : :Chapter 08
00:51:08.648 : :Chapter 09
00:58:17.869 : :Chapter 10
01:02:08.558 : :Chapter 11
01:08:57.967 : :Chapter 12
01:13:36.537 : :Chapter 13
01:16:59.072 : :Chapter 14
01:26:57.003 : :Chapter 15
01:36:30.993 : :Chapter 16
01:43:37.794 : :Chapter 17
01:49:51.459 : :Chapter 18
01:53:44.734 : :Chapter 19
02:01:50.094 : :Chapter 20



Скачать Белоснежка и охотник через торрент https://d.radikal.ru/d39/1912/e5/270f85836c0d.png Скачать, смотреть онлайн Белоснежка и охотник бесплантно в хорошем качестве Описание: Тьма приближается. Она прячется в лесах, спускается с гор, застилает небо. Никто не укроется от магического зеркала Королевы, ... 10 10 2
Торрент: Зарегистрирован [2019-12-16 05:08] · скачан: 27 раз
Статус: √ проверено
Размер: 57.52 GB
Как cкачать? Как скачать Белоснежка и охотник через торрент | UTorrent

% Раздел Тема Автор DL S | L
Фильмы (Blu-ray, BD-Remux, HDDVD) [ 34.96 GB ] Белоснежка и охотник / Snow White And The Huntsman | DUB+2xAVO+VO | BD Remux 1080p bober100 Скачать
1 | 0

28-11-2019 20:33  


Отключить вcю реклaмy на сайте, в т.ч. и в плеере онлайн просмотра!

    Дорогой пользователь! Огромная просьба, поблагодарите релизера, оцените раздачу и оставьте свои комментарий, если Вы скачали Белоснежка и охотник через торрент бесплатно!!
    Комментировать посты могут только пользователи прошедшие не сложную регистрацию
    Показать сообщения:    


    Белоснежка и охотник через торрент
    Скачать бесплатно Белоснежка и охотник
    Белоснежка и охотник скачать торрент
    Белоснежка и охотник смотреть онлайн
    Cкачать фильм Белоснежка и охотник бесплатно
    Белоснежка и охотник скачать торрент в хорошем качестве
    Белоснежка и охотник смотреть онлайн бесплатно в хорошем качестве
    Вы не можете начинать темы
    Вы не можете отвечать на сообщения
    Вы не можете редактировать свои сообщения
    Вы не можете удалять свои сообщения
    Вы не можете голосовать в опросах
    Вы не можете прикреплять файлы к сообщениям
    Вы можете скачивать файлы
    Белоснежка и охотник / Snow White and the Huntsman [2012, фэнтези, боевик, драма, UHD BDRemux 2160p] [Расширенная версия] Дубляж [Лицензия] + 2xAVO смотреть онлайн, скачать торрент picoco.icu