Доктор Стрэндж

Лицензия

Добыча

MVO

Дом дракона

1 сезон

Тор

Лицензия

Мэверик

Лицензия

Там, где раки поют

MVO

Властелин колец

1 сезон

Ultimate

pack

Рекомендуем

30

Repack

ВАЖНО

ВАЖНО

Ghostwire

RePack

jed

RePack

nioh2

RePack

RDR2

RePack

NEED FOR SPEED™ PAYBACK

RePack

скачать торрент

Кинопоиск HD

Острые козырьки 6 сезон

6 сезон

FAR CRY 6

RePack

скачать торрент

Лицензия

скачать торрент

MVO

1

1 сезон

скачать торрент

1 сезон

скачать торрент

Лицензия

  

Дело Курта Клаузевица (Глеб Панфилов) [1964, СССР, драма, короткометражка, SATRip от AVP Studio]

Дело Курта Клаузевица через торрент piratbit.org

Размер: 248 MB | Добавлен: 2 года 9 мес. назад | Торрент скачан:15 раз
Смотреть онлайн Дело Курта Клаузевица | Скачать   

16-12-2019 11:08 Дело Курта Клаузевица Скачать торрент  

Дело Курта Клаузевица
Страна: СССР
Производство: Свердловское телевидение

Жанр: драма, короткометражка
Год выпуска: 1964
Продолжительность: 00:21:31

Перевод: Не требуется
Cубтитры: нет
Оригинальная аудиодорожка: русский

Режиссер: Глеб Панфилов


Анатолий (Отто) Солоницын, Роман Сергеев, Михаил Сухоруков, Владимир Кадочников...
Об актёрах подробней


В освобожденном поселке в помещении детского дома находят дело немецкого солдата, который пожалел советских солдат и был приговорен к смертной казни.

Исходник: DVB
Качество видео: SATRip
Формат видео: AVI

Видео: 704x528 (4:3), 25,000 кадров/сек, XviD ~ 1412 kbps avg, 0.152 bit/pixel
Аудио: 48 kHz, Dolby Digital AC3 2.0, 192 kbps

Раздача от:
Общее
Полное имя : Delo.Kurta.Klauzevica.1964.SATRip_[New-team]_by_AVP_Studio.avi
Формат : AVI
Формат/Информация : Audio Video Interleave
Размер файла : 248 Мбайт
Продолжительность : 21 м. 31 с.
Общий поток : 1613 Кбит/сек
Программа кодирования : VirtualDubMod 1.5.10.3 | www.virtualdub-fr.org || (build 2550/release)
Библиотека кодирования : VirtualDubMod build 2550/release

Видео
Идентификатор : 0
Формат : MPEG-4 Visual
Профиль формата : Advanced Simple@L5
Настройки формата : BVOP1 / Custom Matrix
Параметр BVOP формата : 1
Параметр QPel формата : Нет
Параметр GMC формата : Без точки перехода
Параметр матрицы формата : Выборочная
Идентификатор кодека : XVID
Идентификатор кодека/Подсказка : XviD
Продолжительность : 21 м. 31 с.
Битрейт : 1412 Кбит/сек
Ширина : 704 пикселя
Высота : 528 пикселей
Соотношение сторон : 4:3
Частота кадров : 25,000 кадров/сек
Цветовое пространство : YUV
Субдискретизация насыщенности : 4:2:0
Битовая глубина : 8 бит
Тип развёртки : Прогрессивная
Метод сжатия : С потерями
Бит/(Пиксели*Кадры) : 0.152
Размер потока : 217 Мбайт (87%)
Библиотека кодирования : XviD 73

Аудио
Идентификатор : 1
Формат : AC-3
Формат/Информация : Audio Coding 3
Коммерческое название : Dolby Digital
Идентификатор кодека : 2000
Продолжительность : 21 м. 31 с.
Вид битрейта : Постоянный
Битрейт : 192 Кбит/сек
Каналы : 2 канала
ChannelLayout : L R
Частота : 48,0 КГц
Частота кадров : 31,250 кадров/сек (1536 SPF)
Битовая глубина : 16 бит
Метод сжатия : С потерями
Размер потока : 29,6 Мбайт (12%)
Выравнивание : Разделение по промежуткам
Продолжительность промежутка : 40 мс. (1,00 видеокадр)
Время предзагрузки промежутка : 500 мс



Скачать Дело Курта Клаузевица через торрент http://a.radikal.ru/a17/1912/7a/049740aa59cf.png Скачать, смотреть онлайн Дело Курта Клаузевица бесплантно в хорошем качестве Год выпуска: 1964Продолжительность: 00:21:31Перевод: Не требуетсяCубтитры: нетОригинальная аудиодорожка: русскийРежиссер: Глеб ... 5 10 1
Торрент: Зарегистрирован [2019-12-16 11:08] · скачан: 15 раз
Статус: √ проверено
Размер: 248 MB
Как cкачать? Как скачать Дело Курта Клаузевица через торрент | UTorrent

% Раздел Тема Автор DL S | L
Кино СССР [ 248 MB ] Дело Курта Клаузевица | | SATRip-AVC от AVP Studio AVP Studio Скачать
1 | 0

28-11-2019 20:33  

Отключить вcю реклaмy на сайте

    Дорогой пользователь! Огромная просьба, поблагодарите релизера, оцените раздачу и оставьте свои комментарий, если Вы скачали Дело Курта Клаузевица через торрент бесплатно!!
    Комментировать посты могут только пользователи прошедшие не сложную регистрацию
    Показать сообщения:    


    Дело Курта Клаузевица через торрент
    Скачать бесплатно Дело Курта Клаузевица
    Дело Курта Клаузевица скачать торрент
    Дело Курта Клаузевица смотреть онлайн
    Cкачать фильм Дело Курта Клаузевица бесплатно
    Дело Курта Клаузевица скачать торрент в хорошем качестве
    Дело Курта Клаузевица смотреть онлайн бесплатно в хорошем качестве
    Вы не можете начинать темы
    Вы не можете отвечать на сообщения
    Вы не можете редактировать свои сообщения
    Вы не можете удалять свои сообщения
    Вы не можете голосовать в опросах
    Вы не можете прикреплять файлы к сообщениям
    Вы можете скачивать файлы