Ссылка на приватное зеркало нашего сайта всего за 1$. Внимание количество ограничено!!!

2 сезон

iTunes

1 сезон

1

iTunes

iTunes

iTunes

1 сезон

RePack

30

ИГРА 18+

pack

ВАЖНО

!!Акция!!

Alien_RageХит недели

RePack

MK11
pack

Забери бонус

RePack

jed

!!Акция!!

Alien_Rage

RePack

fifa19

RePack

Assassins Creed: Odyssey

RePack

NEED FOR SPEED™ PAYBACK

4 сезон

9 сезон

Бесстыжие 9 сезон

Все сериалы

все сериалы на PB.wtf

RePack

FAR CRY 5
  

Инквизиция / Beatrice Cenci (Лучио Фульчи) [1969, драма, биография, BDRip 1080p by msltel] 2 x AVO piratbit.org

Инквизиция через торрент piratbit.org

Размер: 10.87 GB | Добавлен: 10 мес. назад | Торрент скачан:2 раза
Скачать  

17-12-2019 05:31 Инквизиция Скачать торрент  

Название: Инквизиция
Оригинальное название: Beatrice Cenci
Год выпуска: 1969
Страна: Италия
Жанр: драма, биография
Продолжительность: 01:33:42
Перевод: авторский

Режиссер: Лучио Фульчи
В ролях: Томас Милиан, Адриенн Ла Русса, Жорж Вильсон, Мави, Антонио Касагранде, Игнацио Спалла, Макс Стеффен Захариас, Раймон Пеллегрен, Массимо Саркьелли, Мирко Эллис

О фильме: Итальянский вельможа Франческо Ченчи был настолько жесток, что его близкие родственники решают расправиться с ним. Олимпио, слуга Ченчи, влюблён в его дочь, прекрасную Беатриче. Ради неё он готов на любые жертвы. Олимипио нанимает известного бандита Каталоно, и они вдвоём убивают Ченчи, имитируя несчастный случай. За расследование этого дела берётся святая инквизиция...



Качество: BDRip 1080p
Формат: MKV
Видео: MPEG-4 AVC, 16 Mбит/с, 1920x1036, 23.976 кадр/с
Аудио 1: русский, AC3, 192 kbps, 2 ch, 48 kHz [авторский, Антон Алексеев]
Аудио 2: русский, AC3, 192 kbps, 2 ch, 48 kHz [авторский, Владимир Сонькин]
Аудио 3: итальянский, AC3, 192 kbps, 2 ch, 48 kHz [оригинал]
Субтитры: английские
Главы/чаптеры
Общее
Уникальный идентификатор : 240101376926964280053843045503707246072 (0xB4A1D7D8C237B2DD81A60229DCA9EDF8)
Полное имя : D:\Video\Инквизиция.1969.BDRip 1080p by msltel.mkv
Формат : Matroska
Версия формата : Version 4
Размер файла : 10,9 Гбайт
Продолжительность : 1 ч. 33 м.
Общий поток : 16,6 Мбит/сек
Название фильма : Rip by msltel
Дата кодирования : UTC 2019-12-17 02:22:26
Программа кодирования : mkvmerge v8.2.0 ('World of Adventure') 64bit
Библиотека кодирования : libebml v1.3.1 + libmatroska v1.4.2

Видео
Идентификатор : 1
Формат : AVC
Формат/Информация : Advanced Video Codec
Профиль формата : High@L4.1
Настройки формата : CABAC / 4 Ref Frames
Параметр CABAC формата : Да
Параметр RefFrames формата : 4 кадра
Идентификатор кодека : V_MPEG4/ISO/AVC
Продолжительность : 1 ч. 33 м.
Битрейт : 16,0 Мбит/сек
Ширина : 1920 пикселей
Высота : 1036 пикселей
Соотношение сторон : 1,85:1
Режим частоты кадров : Постоянный
Частота кадров : 23,976 (24000/1001) кадра/сек
Цветовое пространство : YUV
Субдискретизация насыщенности : 4:2:0
Битовая глубина : 8 бит
Тип развёртки : Прогрессивная
Бит/(Пиксели*Кадры) : 0.336
Размер потока : 10,5 Гбайт (97%)
Библиотека кодирования : x264 core 157 r2935 545de2f
Настройки программы : cabac=1 / ref=4 / deblock=1:-2:-2 / analyse=0x3:0x113 / me=umh / subme=11 / psy=1 / psy_rd=1.00:0.15 / mixed_ref=1 / me_range=32 / chroma_me=1 / trellis=2 / 8x8dct=1 / cqm=0 / deadzone=21,11 / fast_pskip=0 / chroma_qp_offset=-3 / threads=6 / lookahead_threads=1 / sliced_threads=0 / nr=0 / decimate=1 / interlaced=0 / bluray_compat=0 / constrained_intra=0 / bframes=11 / b_pyramid=2 / b_adapt=2 / b_bias=0 / direct=1 / weightb=1 / open_gop=0 / weightp=2 / keyint=230 / keyint_min=23 / scenecut=40 / intra_refresh=0 / rc_lookahead=40 / rc=crf / mbtree=0 / crf=20.3 / qcomp=0.60 / qpmin=0 / qpmax=69 / qpstep=4 / vbv_maxrate=50000 / vbv_bufsize=62500 / crf_max=0.0 / nal_hrd=none / filler=0 / ip_ratio=1.40 / pb_ratio=1.30 / aq=1:1.00
Язык : Italian
Default : Да
Forced : Нет

Аудио #1
Идентификатор : 2
Формат : AC-3
Формат/Информация : Audio Coding 3
Коммерческое название : Dolby Digital
Идентификатор кодека : A_AC3
Продолжительность : 1 ч. 33 м.
Вид битрейта : Постоянный
Битрейт : 192 Кбит/сек
Каналы : 2 канала
ChannelLayout : L R
Частота : 48,0 КГц
Частота кадров : 31,250 кадров/сек (1536 SPF)
Метод сжатия : С потерями
Размер потока : 129 Мбайт (1%)
Заголовок : Антон Алексеев
Язык : Russian
ServiceKind/String : Complete Main
Default : Да
Forced : Нет

Аудио #2
Идентификатор : 3
Формат : AC-3
Формат/Информация : Audio Coding 3
Коммерческое название : Dolby Digital
Идентификатор кодека : A_AC3
Продолжительность : 1 ч. 33 м.
Вид битрейта : Постоянный
Битрейт : 192 Кбит/сек
Каналы : 2 канала
ChannelLayout : L R
Частота : 48,0 КГц
Частота кадров : 31,250 кадров/сек (1536 SPF)
Метод сжатия : С потерями
Размер потока : 129 Мбайт (1%)
Заголовок : Владимир Сонькин
Язык : Russian
ServiceKind/String : Complete Main
Default : Нет
Forced : Нет

Аудио #3
Идентификатор : 4
Формат : AC-3
Формат/Информация : Audio Coding 3
Коммерческое название : Dolby Digital
Идентификатор кодека : A_AC3
Продолжительность : 1 ч. 33 м.
Вид битрейта : Постоянный
Битрейт : 192 Кбит/сек
Каналы : 2 канала
ChannelLayout : L R
Частота : 48,0 КГц
Частота кадров : 31,250 кадров/сек (1536 SPF)
Метод сжатия : С потерями
Размер потока : 129 Мбайт (1%)
Заголовок : original
Язык : Italian
ServiceKind/String : Complete Main
Default : Нет
Forced : Нет

Текст
Идентификатор : 5
Формат : UTF-8
Идентификатор кодека : S_TEXT/UTF8
Идентификатор кодека/Информация : UTF-8 Plain Text
Продолжительность : 1 ч. 32 м.
Битрейт : 44 бит/сек
ElementCount : 939
Размер потока : 30,2 Кбайт (0%)
Заголовок : английские
Язык : English
Default : Нет
Forced : Нет

Меню
00:00:00.000 : :Глава 01
00:05:34.167 : :Глава 02
00:13:44.448 : :Глава 03
00:22:31.933 : :Глава 04
00:32:09.302 : :Глава 05
00:42:24.708 : :Глава 06
00:51:39.679 : :Глава 07
00:59:52.547 : :Глава 08
01:07:51.901 : :Глава 09
01:15:59.888 : :Глава 10
01:23:05.021 : :Глава 11
01:29:09.969 : :Глава 12
piratbit.org



Скачать Инквизиция через торрент https://d.radikal.ru/d08/1912/e9/e2ab0db53926.jpg Скачать фильм Инквизиция через торрент бесплантно в хорошем качестве О фильме: Итальянский вельможа Франческо Ченчи был настолько жесток, что его близкие родственники решают расправиться с ним. Олимпио, слуга ... 5 10 1
Info! Золотая раздача, скачанное не засчитывается.
Торрент: Зарегистрирован [2019-12-17 05:31] · скачан: 2 раз
Статус: √ проверено
Размер: 10.87 GB
Как cкачать? Как скачать Инквизиция через торрент | qTorrent

% Раздел Тема Автор DL S | L
Классика зарубежного кино [ 4.27 GB ] Инквизиция / Beatrice Cenci [1969 биография BDRip 720p by msltel] 2 x AVO msltel Скачать
1 | 0
Классика зарубежного кино [ 2.21 GB ] Инквизиция / Beatrice Cenci [1969 биография BDRip by msltel] 2 x AVO msltel Скачать
1 | 0

28-11-2019 20:33  

Отключить всю рекламу на сайте

    Дорогой пользователь! Огромная просьба, поблагодарите релизера, оцените раздачу и оставьте свои комментарий, если Вы скачали Инквизиция через торрент бесплатно! Внесите свою лепту в развитие PiratBit!
    Комментировать посты могут только пользователи прошедшие не сложную регистрацию
    Показать сообщения:    

    Инквизиция через торрент
    Скачать бесплатно Инквизиция
    Инквизиция скачать торрент
    Инквизиция смотреть онлайн
    Cкачать фильм Инквизиция бесплатно
    Инквизиция скачать торрент в хорошем качестве
    Инквизиция смотреть онлайн бесплатно в хорошем качестве


    Вы не можете начинать темы
    Вы не можете отвечать на сообщения
    Вы не можете редактировать свои сообщения
    Вы не можете удалять свои сообщения
    Вы не можете голосовать в опросах
    Вы не можете прикреплять файлы к сообщениям
    Вы можете скачивать файлы