Ссылка на приватное зеркало нашего сайта всего за 1$. Внимание количество ограничено!!!

2 сезон

iTunes

1 сезон

1

iTunes

iTunes

iTunes

1 сезон

RePack

30

ИГРА 18+

pack

ВАЖНО

!!Акция!!

Alien_RageХит недели

RePack

MK11
pack

Забери бонус

RePack

jed

!!Акция!!

Alien_Rage

RePack

fifa19

RePack

Assassins Creed: Odyssey

RePack

NEED FOR SPEED™ PAYBACK

4 сезон

9 сезон

Бесстыжие 9 сезон

Все сериалы

все сериалы на PB.wtf

RePack

FAR CRY 5
  

Злые и красивые / The Bad and the Beautiful (Винсенте Миннелли) [1952, мелодрама, драма, BDRip (AVC) by msltel] DVO piratbit.org

Злые и красивые через торрент piratbit.org

Размер: 2.27 GB | Добавлен: 10 мес. назад | Торрент скачан:4 раза
Скачать  

17-12-2019 08:19 Злые и красивые Скачать торрент  

Название: Злые и красивые
Оригинальное название: The Bad and the Beautiful
Год выпуска: 1952
Страна: США
Жанр: мелодрама, драма
Продолжительность: 01:57:50
Перевод: профессиональный двухголосый

Режиссер: Винсенте Миннелли
В ролях: Лана Тёрнер, Кирк Дуглас, Уолтер Пиджон, Дик Пауэлл, Бэрри Салливан, Глория Грэм, Гилберт Роланд, Лео Г. Кэррол, Ванесса Браун, Пол Стюарт, Сэмми Уайт, Илэйн Стюарт, Иван Тризо, Джей Адлер, Стэнли Эндрюс, Бен Астар, Барбара Биллингсли, Джон Бишоп, Мэдж Блейк, Маршалл Брэдфорд, Хадда Брукс, Роберт Бертон, Френсис К. Бушмен, Луис Калхёрн, Мариэтта Кэнти, Роберт Карсон, Джеймс Конати, Джонатан Котт, Лиллиэн Калвер, Алексис Давидофф, Сэнди Десчер, Фил Данхэм, Франклин Фэрнум, Бесс Флауэрс, Стив Форрест, Кэтлин Фримен, Фрэнк Герстл, Нед Глэсс, Лиза Голм

О фильме: История взлёта и падения жёсткого, амбициозного голливудского продюсера Джонатана Шилдса с точки зрения различных очевидцев, среди которых именитый писатель Джеймс Ли Бартлоу, кинозвезда Джорджия Лоррисон и режиссёр Фред Эмиэл. Сценарий написан на основе рассказа Чарльза Брэдшоу «Дань плохому парню» (англ. A Tribute to a Badman). В 2002 году картина вошла в Национальный реестр фильмов Соединённых Штатов Америки.



Качество: BDRip (AVC)
Формат: MKV
Видео: MPEG-4 AVC, 2373 Кбит/с, 790x576
Аудио 1: русский, AC3, 192 kbps, 2 ch, 48 kHz [закадровый двухголосый, Film Prestige]
Аудио 2: английский, AC3, 192 kbps, 2 ch, 48 kHz [оригинал]
Субтитры 1: русские
Субтитры 2: английские
Главы/чаптеры
Общее
Уникальный идентификатор : 252406806391871101429896806989831189340 (0xBDE3C85C634566158FE0F1FBA3ADB35C)
Полное имя : D:\Video\Злые и красивые.1952.BDRip (AVC) by msltel.mkv
Формат : Matroska
Версия формата : Version 4
Размер файла : 2,27 Гбайт
Продолжительность : 1 ч. 57 м.
Общий поток : 2759 Кбит/сек
Название фильма : Rip by msltel
Дата кодирования : UTC 2019-12-17 04:55:11
Программа кодирования : mkvmerge v8.2.0 ('World of Adventure') 64bit
Библиотека кодирования : libebml v1.3.1 + libmatroska v1.4.2

Видео
Идентификатор : 1
Формат : AVC
Формат/Информация : Advanced Video Codec
Профиль формата : High@L4.1
Настройки формата : CABAC / 9 Ref Frames
Параметр CABAC формата : Да
Параметр RefFrames формата : 9 кадров
Идентификатор кодека : V_MPEG4/ISO/AVC
Продолжительность : 1 ч. 57 м.
Битрейт : 2373 Кбит/сек
Ширина : 790 пикселей
Высота : 576 пикселей
Соотношение сторон : 1,372
Режим частоты кадров : Постоянный
Частота кадров : 23,976 (24000/1001) кадра/сек
Цветовое пространство : YUV
Субдискретизация насыщенности : 4:2:0
Битовая глубина : 8 бит
Тип развёртки : Прогрессивная
Бит/(Пиксели*Кадры) : 0.218
Размер потока : 1,95 Гбайт (86%)
Библиотека кодирования : x264 core 157 r2935 545de2f
Настройки программы : cabac=1 / ref=9 / deblock=1:-2:-2 / analyse=0x3:0x113 / me=umh / subme=11 / psy=1 / psy_rd=1.00:0.15 / mixed_ref=1 / me_range=32 / chroma_me=1 / trellis=2 / 8x8dct=1 / cqm=0 / deadzone=21,11 / fast_pskip=0 / chroma_qp_offset=-3 / threads=6 / lookahead_threads=1 / sliced_threads=0 / nr=0 / decimate=1 / interlaced=0 / bluray_compat=0 / constrained_intra=0 / bframes=9 / b_pyramid=2 / b_adapt=2 / b_bias=0 / direct=1 / weightb=1 / open_gop=0 / weightp=2 / keyint=230 / keyint_min=23 / scenecut=40 / intra_refresh=0 / rc_lookahead=40 / rc=crf / mbtree=0 / crf=19.6 / qcomp=0.60 / qpmin=0 / qpmax=69 / qpstep=4 / vbv_maxrate=50000 / vbv_bufsize=62500 / crf_max=0.0 / nal_hrd=none / filler=0 / ip_ratio=1.40 / pb_ratio=1.30 / aq=1:1.00
Язык : English
Default : Да
Forced : Нет

Аудио #1
Идентификатор : 2
Формат : AC-3
Формат/Информация : Audio Coding 3
Коммерческое название : Dolby Digital
Идентификатор кодека : A_AC3
Продолжительность : 1 ч. 57 м.
Вид битрейта : Постоянный
Битрейт : 192 Кбит/сек
Каналы : 2 канала
ChannelLayout : L R
Частота : 48,0 КГц
Частота кадров : 31,250 кадров/сек (1536 SPF)
Метод сжатия : С потерями
Размер потока : 162 Мбайт (7%)
Заголовок : DVO Film Prestige
Язык : Russian
ServiceKind/String : Complete Main
Default : Да
Forced : Нет

Аудио #2
Идентификатор : 3
Формат : AC-3
Формат/Информация : Audio Coding 3
Коммерческое название : Dolby Digital
Идентификатор кодека : A_AC3
Продолжительность : 1 ч. 57 м.
Вид битрейта : Постоянный
Битрейт : 192 Кбит/сек
Каналы : 2 канала
ChannelLayout : L R
Частота : 48,0 КГц
Частота кадров : 31,250 кадров/сек (1536 SPF)
Метод сжатия : С потерями
Размер потока : 162 Мбайт (7%)
Заголовок : original
Язык : English
ServiceKind/String : Complete Main
Default : Нет
Forced : Нет

Текст #1
Идентификатор : 4
Формат : UTF-8
Идентификатор кодека : S_TEXT/UTF8
Идентификатор кодека/Информация : UTF-8 Plain Text
Продолжительность : 1 ч. 57 м.
Битрейт : 112 бит/сек
ElementCount : 1331
Размер потока : 97,3 Кбайт (0%)
Заголовок : русские
Язык : Russian
Default : Нет
Forced : Нет

Текст #2
Идентификатор : 5
Формат : UTF-8
Идентификатор кодека : S_TEXT/UTF8
Идентификатор кодека/Информация : UTF-8 Plain Text
Продолжительность : 1 ч. 54 м.
Битрейт : 74 бит/сек
ElementCount : 1822
Размер потока : 62,7 Кбайт (0%)
Заголовок : английские
Язык : English
Default : Нет
Forced : Нет

Меню
00:00:00.000 : en:Chapter 01
00:01:24.083 : en:Chapter 02
00:03:31.543 : en:Chapter 03
00:07:04.757 : en:Chapter 04
00:11:59.300 : en:Chapter 05
00:17:09.361 : en:Chapter 06
00:20:45.868 : en:Chapter 07
00:24:25.463 : en:Chapter 08
00:27:32.359 : en:Chapter 09
00:30:54.018 : en:Chapter 10
00:35:06.103 : en:Chapter 11
00:38:33.602 : en:Chapter 12
00:42:16.784 : en:Chapter 13
00:49:39.810 : en:Chapter 14
00:53:56.900 : en:Chapter 15
00:58:17.827 : en:Chapter 16
01:02:54.437 : en:Chapter 17
01:08:22.097 : en:Chapter 18
01:12:37.186 : en:Chapter 19
01:15:24.061 : en:Chapter 20
01:19:45.697 : en:Chapter 21
01:21:50.697 : en:Chapter 22
01:25:49.144 : en:Chapter 23
01:29:39.372 : en:Chapter 24
01:33:48.122 : en:Chapter 25
01:37:45.526 : en:Chapter 26
01:40:51.045 : en:Chapter 27
01:43:39.880 : en:Chapter 28
01:46:12.365 : en:Chapter 29
01:48:15.238 : en:Chapter 30
01:51:38.400 : en:Chapter 31
01:53:52.826 : en:Chapter 32
01:56:43.997 : en:Chapter 33
piratbit.org



Скачать Злые и красивые через торрент https://d.radikal.ru/d20/1912/56/647c9cd3d44c.jpg Скачать фильм Злые и красивые через торрент бесплантно в хорошем качестве О фильме: История взлёта и падения жёсткого, амбициозного голливудского продюсера Джонатана Шилдса с точки зрения различных очевидцев, ... 10 10 1
Info! Золотая раздача, скачанное не засчитывается.
Торрент: Зарегистрирован [2019-12-17 08:19] · скачан: 4 раз
Статус: √ проверено
Размер: 2.27 GB
Как cкачать? Как скачать Злые и красивые через торрент | qTorrent

% Раздел Тема Автор DL S | L
Классика зарубежного кино [ 12.88 GB ] Злые и красивые / The Bad and the Beautiful [1952 BDRip 1080p by msltel] DVO msltel Скачать
1 | 0
Классика зарубежного кино [ 4.53 GB ] Злые и красивые / The Bad and the Beautiful [1952 BDRip 720p by msltel] DVO msltel Скачать
1 | 1

28-11-2019 20:33  

Отключить всю рекламу на сайте

    Дорогой пользователь! Огромная просьба, поблагодарите релизера, оцените раздачу и оставьте свои комментарий, если Вы скачали Злые и красивые через торрент бесплатно! Внесите свою лепту в развитие PiratBit!
    Комментировать посты могут только пользователи прошедшие не сложную регистрацию
    Показать сообщения:    

    Злые и красивые через торрент
    Скачать бесплатно Злые и красивые
    Злые и красивые скачать торрент
    Злые и красивые смотреть онлайн
    Cкачать фильм Злые и красивые бесплатно
    Злые и красивые скачать торрент в хорошем качестве
    Злые и красивые смотреть онлайн бесплатно в хорошем качестве


    Вы не можете начинать темы
    Вы не можете отвечать на сообщения
    Вы не можете редактировать свои сообщения
    Вы не можете удалять свои сообщения
    Вы не можете голосовать в опросах
    Вы не можете прикреплять файлы к сообщениям
    Вы можете скачивать файлы