Доктор Стрэндж

Лицензия

Добыча

Дубляж

Дом дракона

1 сезон

Тор

Дубляж

В эфире

Дубляж

Там, где раки поют

MVO

Властелин колец

1 сезон

Deluxe

pack

Рекомендуем

30

Пиратка

ВАЖНО

ВАЖНО

Ghostwire

Пиратка

jed

RePack

nioh2

RePack

RDR2

RePack

NEED FOR SPEED™ PAYBACK

RePack

скачать торрент

Кинопоиск HD

Острые козырьки 6 сезон

6 сезон

FAR CRY 6

RePack

скачать торрент

Лицензия

скачать торрент

MVO

1

1 сезон

скачать торрент

1 сезон

скачать торрент

Лицензия

  

Оперативник / The Operative (Юваль Адлер) [2019, Триллер, BDRip-AVC] MVO [HDRezka] - ExKinoRay

Оперативник через торрент piratbit.org

Размер: 2.09 GB | Добавлен: 2 года 11 мес. назад | Торрент скачан:205 раз
Смотреть онлайн | Скачать   

19-12-2019 12:41 Оперативник Скачать торрент  

Название: Оперативник
Оригинальное название: The Operative
Год выпуска: 2019
Жанр: Триллер
Режиссер: Юваль Адлер
В ролях: Дайан Крюгер, Мартин Фриман, Кэс Анвар, Ротем Кейнан, Лана Эттинджер, Йоав Леви, Йоханан Херсон, Кейт Николс, Даниэль Вандельт, Юлия Шнайдер

Описание: Рэйчел бегло говорит на нескольких языках. Идеальная квалификация для агента израильской службы внешней разведки Моссад, которая ее завербовала. Офицер связи Томас высоко ценит ее. Оперативное командование в Израиле также доверяет ей, и поэтому Рэйчел отправляется в Тегеран с секретной миссией. Очарованная этой чужой страной, она тщательно вписывается в повседневную жизнь и заводит роман с бизнесменом Фархадом, человеком, за которым ей поручили шпионить. Но ее миссия становится все более и более требовательной и опасной, пока она наконец не решает бросить задание. Она оставляет загадочное сообщение для Томаса, который должен найти ее, прежде чем она станет угрозой для Израиля.

rating

Выпущено: США, Израиль, Франция, Германия
Студия: Black Bear Pictures, Bord Cadre Films
Продолжительность: 01:56:57
Перевод: Профессиональный (многоголосый, закадровый) | HDRezka

Формат: MKV
Качество: BDRip-AVC
Видео: MPEG-4 AVC, 1024x428 (2.40:1), 24.000 fps, 1912 Kbps, 0.182 bit/pixel
Аудио #01: 48 kHz, AC3, 2.0, 192 Kbps | MVO | RUS |
Аудио #02: 48 kHz, AC3, 5.1, 448 Kbps | Оригинал | ENG |
Субтитры: Русские (форс.), английские
General
Unique ID : 191856536201439025352110546361877670959 (0x9056398D2080765F925240D4BD0E2C2F)
Complete name : F:\The.Operative.2019.MVO.BDRip.AVC.ExKinoRay.mkv
Format : Matroska
Format version : Version 2
File size : 2.09 GiB
Duration : 1 h 56 min
Overall bit rate : 2 553 kb/s
Movie name : The Operative 2019 from ExKinoRay
Encoded date : UTC 2019-12-19 12:12:57
Writing application : mkvmerge v5.6.0 ('Kenya Kane') built on May 27 2012 16:44:04
Writing library : libebml v1.2.3 + libmatroska v1.3.0

Video
ID : 1
Format : AVC
Format/Info : Advanced Video Codec
Format profile : High@L4.1
Format settings, CABAC : Yes
Format settings, ReFrames : 12 frames
Codec ID : V_MPEG4/ISO/AVC
Duration : 1 h 56 min
Bit rate : 1 912 kb/s
Width : 1 024 pixels
Height : 428 pixels
Display aspect ratio : 2.40:1
Frame rate mode : Constant
Frame rate : 23.976 (23976/1000) FPS
Color space : YUV
Chroma subsampling : 4:2:0
Bit depth : 8 bits
Scan type : Progressive
Bits/(Pixel*Frame) : 0.182
Stream size : 1.52 GiB (73%)
Title : Enigma
Writing library : x264 core 152 r2851 ba24899
Encoding settings : cabac=1 / ref=12 / deblock=1:-2:-2 / analyse=0x3:0x113 / me=umh / subme=10 / psy=1 / psy_rd=1.00:0.05 / mixed_ref=1 / me_range=32 / chroma_me=1 / trellis=2 / 8x8dct=1 / cqm=0 / deadzone=21,11 / fast_pskip=0 / chroma_qp_offset=-3 / threads=12 / lookahead_threads=3 / sliced_threads=0 / nr=0 / decimate=0 / interlaced=0 / bluray_compat=0 / constrained_intra=0 / bframes=12 / b_pyramid=2 / b_adapt=2 / b_bias=0 / direct=3 / weightb=1 / open_gop=0 / weightp=2 / keyint=240 / keyint_min=23 / scenecut=40 / intra_refresh=0 / rc=2pass / mbtree=0 / bitrate=1912 / ratetol=1.0 / qcomp=0.60 / qpmin=0 / qpmax=51 / qpstep=4 / cplxblur=20.0 / qblur=0.5 / ip_ratio=1.40 / pb_ratio=1.30 / aq=1:1.00
Language : English
Default : Yes
Forced : No
Color range : Limited
Color primaries : BT.709
Transfer characteristics : BT.709
Matrix coefficients : BT.709

Audio #1
ID : 2
Format : AC-3
Format/Info : Audio Coding 3
Mode extension : CM (complete main)
Format settings, Endianness : Big
Codec ID : A_AC3
Duration : 1 h 56 min
Bit rate mode : Constant
Bit rate : 192 kb/s
Channel(s) : 2 channels
Channel positions : Front: L R
Sampling rate : 48.0 kHz
Frame rate : 31.250 FPS (1536 spf)
Compression mode : Lossy
Stream size : 161 MiB (8%)
Title : MVO
Language : Russian
Default : Yes
Forced : No

Audio #2
ID : 3
Format : AC-3
Format/Info : Audio Coding 3
Mode extension : CM (complete main)
Format settings, Endianness : Big
Codec ID : A_AC3
Duration : 1 h 56 min
Bit rate mode : Constant
Bit rate : 448 kb/s
Channel(s) : 6 channels
Channel positions : Front: L C R, Side: L R, LFE
Sampling rate : 48.0 kHz
Frame rate : 31.250 FPS (1536 spf)
Compression mode : Lossy
Stream size : 375 MiB (18%)
Language : English
Default : No
Forced : No

Text #1
ID : 4
Format : UTF-8
Codec ID : S_TEXT/UTF8
Codec ID/Info : UTF-8 Plain Text
Title : Forced
Language : Russian
Default : Yes
Forced : No

Text #2
ID : 5
Format : UTF-8
Codec ID : S_TEXT/UTF8
Codec ID/Info : UTF-8 Plain Text
Language : English
Default : No
Forced : No

Menu
00:00:00.000 : en:Chapter 01
00:07:03.923 : en:Chapter 02
00:17:45.147 : en:Chapter 03
00:29:43.573 : en:Chapter 04
00:41:36.703 : en:Chapter 05
00:50:57.137 : en:Chapter 06
01:01:44.409 : en:Chapter 07
01:12:23.130 : en:Chapter 08
01:21:19.666 : en:Chapter 09
01:31:42.831 : en:Chapter 10
01:41:14.443 : en:Chapter 11
01:50:53.897 : en:Chapter 12


Релиз от: VK релиз-группы

Автор релиза: Enigma



Скачать Оперативник через торрент https://a.radikal.ru/a13/1908/ba/ba9eaeda15e3.jpg Скачать, смотреть онлайн Оперативник бесплантно в хорошем качестве Описание: Рэйчел бегло говорит на нескольких языках. Идеальная квалификация для агента израильской службы внешней разведки Моссад, которая ... 8.2 10 5
Info! Золотая раздача, скачанное не засчитывается.
Торрент: Зарегистрирован [2019-12-19 12:41] · скачан: 205 раз
Статус: T временная
Размер: 2.09 GB
Как cкачать? Как скачать Оперативник через торрент | UTorrent

% Раздел Тема Автор DL S | L
T Фильмы 2019-2020 [DVDrip, WEB-DLRip, HDrip] (DUB, MVO) [ 1.96 GB ] Оперативник / The Operative | HDRezka Studio | DLRip-AVC Enigma2010 Скачать
1 | 0

28-11-2019 20:33  


Отключить вcю реклaмy на сайте, в т.ч. и в плеере онлайн просмотра!

    Дорогой пользователь! Огромная просьба, поблагодарите релизера, оцените раздачу и оставьте свои комментарий, если Вы скачали Оперативник через торрент бесплатно!!
    Комментировать посты могут только пользователи прошедшие не сложную регистрацию
    Показать сообщения:    


    Оперативник через торрент
    Скачать бесплатно Оперативник
    Оперативник скачать торрент
    Оперативник смотреть онлайн
    Cкачать фильм Оперативник бесплатно
    Оперативник скачать торрент в хорошем качестве
    Оперативник смотреть онлайн бесплатно в хорошем качестве
    Вы не можете начинать темы
    Вы не можете отвечать на сообщения
    Вы не можете редактировать свои сообщения
    Вы не можете удалять свои сообщения
    Вы не можете голосовать в опросах
    Вы не можете прикреплять файлы к сообщениям
    Вы можете скачивать файлы
    Оперативник / The Operative [2019, Триллер, BDRip-AVC] MVO [HDRezka] - ExKinoRay смотреть онлайн, скачать торрент picoco.icu