Ссылка на приватное зеркало нашего сайта всего за 1$. Внимание количество ограничено!!!

2 сезон

iTunes

1 сезон

1

iTunes

iTunes

iTunes

1 сезон

RePack

30

ИГРА 18+

pack

ВАЖНО

!!Акция!!

Alien_RageХит недели

RePack

MK11
pack

Забери бонус

RePack

jed

!!Акция!!

Alien_Rage

RePack

fifa19

RePack

Assassins Creed: Odyssey

RePack

NEED FOR SPEED™ PAYBACK

4 сезон

9 сезон

Бесстыжие 9 сезон

Все сериалы

все сериалы на PB.wtf

RePack

FAR CRY 5
  

И скоро наступит тьма / And Soon the Darkness (Роберт Фуэст) [1970, ужасы, триллер, детектив, BDRip 1080p by msltel] VO piratbit.org

И скоро наступит тьма через торрент piratbit.org

Размер: 11.77 GB | Добавлен: 10 мес. назад | Торрент скачан:1 раз
Скачать  

20-12-2019 11:32 И скоро наступит тьма Скачать торрент  

Название: И скоро наступит тьма
Оригинальное название: And Soon the Darkness
Год выпуска: 1970
Страна: Великобритания
Жанр: ужасы, триллер, детектив
Продолжительность: 01:39:01
Перевод: закадровый одноголосый

Режиссер: Роберт Фуэст
В ролях: Памела Франклин, Мишель Дотрис, Шандор Элеш, Джон Неттлтон, Клер Келли, Хана Мария Правда, Джон Франклин, Клод Бертран, Жан Карме, Андре Маранн

О фильме: Две английские студентки медицинского колледжа Кэти и Джейн путешествуют во время каникул на велосипедах по провинциальной Франции. Но однажды между ними возникает спор, и они решают разъехаться в разные стороны, а через некоторое время встретиться. Но когда Джейн приезжает на место встречи в лесу, то не обнаруживает даже следов Кэти...



Качество: BDRip 1080p
Формат: MKV
Видео: MPEG4 AVC, 16.6 Mбит/с, 1920x1036
Аудио 1: русский, AC3, 192 kbps, 2 ch, 48 kHz [закадровый одноголосый, Oneinchnales]
Аудио 2: английский, AC3, 192 kbps, 2 ch, 48 kHz [оригинал]
Субтитры 1: русские
Субтитры 2: английские
Главы/чаптеры
Общее
Уникальный идентификатор : 178758321806261009483484949732491949285 (0x867B99B8E4DE39F0ADCBDD9DD56674E5)
Полное имя : D:\Video\И скоро наступит тьма.1970.BDRip 1080p by msltel.mkv
Формат : Matroska
Версия формата : Version 4
Размер файла : 11,8 Гбайт
Продолжительность : 1 ч. 39 м.
Общий поток : 17,0 Мбит/сек
Название фильма : Rip by msltel
Дата кодирования : UTC 2019-12-20 10:28:47
Программа кодирования : mkvmerge v8.2.0 ('World of Adventure') 64bit
Библиотека кодирования : libebml v1.3.1 + libmatroska v1.4.2

Видео
Идентификатор : 1
Формат : AVC
Формат/Информация : Advanced Video Codec
Профиль формата : High@L4.1
Настройки формата : CABAC / 4 Ref Frames
Параметр CABAC формата : Да
Параметр RefFrames формата : 4 кадра
Идентификатор кодека : V_MPEG4/ISO/AVC
Продолжительность : 1 ч. 39 м.
Битрейт : 16,6 Мбит/сек
Ширина : 1920 пикселей
Высота : 1036 пикселей
Соотношение сторон : 1,85:1
Режим частоты кадров : Постоянный
Частота кадров : 24,000 кадра/сек
Цветовое пространство : YUV
Субдискретизация насыщенности : 4:2:0
Битовая глубина : 8 бит
Тип развёртки : Прогрессивная
Бит/(Пиксели*Кадры) : 0.348
Размер потока : 11,5 Гбайт (98%)
Библиотека кодирования : x264 core 157 r2935 545de2f
Настройки программы : cabac=1 / ref=4 / deblock=1:-2:-2 / analyse=0x3:0x113 / me=umh / subme=11 / psy=1 / psy_rd=1.00:0.15 / mixed_ref=1 / me_range=32 / chroma_me=1 / trellis=2 / 8x8dct=1 / cqm=0 / deadzone=21,11 / fast_pskip=0 / chroma_qp_offset=-3 / threads=6 / lookahead_threads=1 / sliced_threads=0 / nr=0 / decimate=1 / interlaced=0 / bluray_compat=0 / constrained_intra=0 / bframes=9 / b_pyramid=2 / b_adapt=2 / b_bias=0 / direct=1 / weightb=1 / open_gop=0 / weightp=2 / keyint=230 / keyint_min=23 / scenecut=40 / intra_refresh=0 / rc_lookahead=40 / rc=crf / mbtree=0 / crf=19.7 / qcomp=0.60 / qpmin=0 / qpmax=69 / qpstep=4 / vbv_maxrate=50000 / vbv_bufsize=62500 / crf_max=0.0 / nal_hrd=none / filler=0 / ip_ratio=1.40 / pb_ratio=1.30 / aq=1:1.00
Язык : English
Default : Да
Forced : Нет

Аудио #1
Идентификатор : 2
Формат : AC-3
Формат/Информация : Audio Coding 3
Коммерческое название : Dolby Digital
Идентификатор кодека : A_AC3
Продолжительность : 1 ч. 38 м.
Вид битрейта : Постоянный
Битрейт : 192 Кбит/сек
Каналы : 2 канала
ChannelLayout : L R
Частота : 48,0 КГц
Частота кадров : 31,250 кадров/сек (1536 SPF)
Метод сжатия : С потерями
Размер потока : 136 Мбайт (1%)
Заголовок : Oneinchnales
Язык : Russian
ServiceKind/String : Complete Main
Default : Да
Forced : Нет

Аудио #2
Идентификатор : 3
Формат : AC-3
Формат/Информация : Audio Coding 3
Коммерческое название : Dolby Digital
Идентификатор кодека : A_AC3
Продолжительность : 1 ч. 39 м.
Вид битрейта : Постоянный
Битрейт : 192 Кбит/сек
Каналы : 2 канала
ChannelLayout : L R
Частота : 48,0 КГц
Частота кадров : 31,250 кадров/сек (1536 SPF)
Метод сжатия : С потерями
Размер потока : 136 Мбайт (1%)
Заголовок : original
Язык : English
ServiceKind/String : Complete Main
Default : Нет
Forced : Нет

Текст #1
Идентификатор : 4
Формат : UTF-8
Идентификатор кодека : S_TEXT/UTF8
Идентификатор кодека/Информация : UTF-8 Plain Text
Продолжительность : 1 ч. 32 м.
Битрейт : 32 бит/сек
ElementCount : 474
Размер потока : 21,9 Кбайт (0%)
Заголовок : русские
Язык : Russian
Default : Нет
Forced : Нет

Текст #2
Идентификатор : 5
Формат : UTF-8
Идентификатор кодека : S_TEXT/UTF8
Идентификатор кодека/Информация : UTF-8 Plain Text
Продолжительность : 1 ч. 32 м.
Битрейт : 22 бит/сек
ElementCount : 503
Размер потока : 15,0 Кбайт (0%)
Заголовок : английские
Язык : English
Default : Нет
Forced : Нет

Меню
00:00:00.000 : en:Chapter 01
00:06:32.416 : en:Chapter 02
00:17:41.750 : en:Chapter 03
00:28:10.958 : en:Chapter 04
00:39:50.458 : en:Chapter 05
00:46:29.000 : en:Chapter 06
00:55:21.375 : en:Chapter 07
01:00:38.625 : en:Chapter 08
01:07:07.958 : en:Chapter 09
01:12:54.416 : en:Chapter 10
01:28:39.791 : en:Chapter 11
01:34:08.291 : en:Chapter 12
piratbit.org



Скачать И скоро наступит тьма через торрент https://d.radikal.ru/d18/1912/ff/b54dad70c9b0.jpg Скачать фильм И скоро наступит тьма через торрент бесплантно в хорошем качестве О фильме: Две английские студентки медицинского колледжа Кэти и Джейн путешествуют во время каникул на велосипедах по провинциальной ... 5 10 1
Торрент: Зарегистрирован [2019-12-20 11:32] · скачан: 1 раз
Статус: √ проверено
Размер: 11.77 GB
Как cкачать? Как скачать И скоро наступит тьма через торрент | qTorrent

% Раздел Тема Автор DL S | L
Классика зарубежного кино [ 4.5 GB ] И скоро наступит тьма / And Soon the Darkness [1970 BDRip 720p by msltel] VO msltel Скачать
1 | 0
Классика зарубежного кино [ 2.36 GB ] И скоро наступит тьма / And Soon the Darkness [1970 BDRip by msltel] VO msltel Скачать
1 | 0

28-11-2019 20:33  

Отключить всю рекламу на сайте

    Дорогой пользователь! Огромная просьба, поблагодарите релизера, оцените раздачу и оставьте свои комментарий, если Вы скачали И скоро наступит тьма через торрент бесплатно! Внесите свою лепту в развитие PiratBit!
    Комментировать посты могут только пользователи прошедшие не сложную регистрацию
    Показать сообщения:    

    И скоро наступит тьма через торрент
    Скачать бесплатно И скоро наступит тьма
    И скоро наступит тьма скачать торрент
    И скоро наступит тьма смотреть онлайн
    Cкачать фильм И скоро наступит тьма бесплатно
    И скоро наступит тьма скачать торрент в хорошем качестве
    И скоро наступит тьма смотреть онлайн бесплатно в хорошем качестве


    Вы не можете начинать темы
    Вы не можете отвечать на сообщения
    Вы не можете редактировать свои сообщения
    Вы не можете удалять свои сообщения
    Вы не можете голосовать в опросах
    Вы не можете прикреплять файлы к сообщениям
    Вы можете скачивать файлы