Ссылка на приватное зеркало нашего сайта всего за 1$. Внимание количество ограничено!!!

2 сезон

iTunes

1 сезон

1

iTunes

iTunes

iTunes

1 сезон

RePack

30

ИГРА 18+

pack

ВАЖНО

!!Акция!!

Alien_RageХит недели

RePack

MK11
pack

Забери бонус

RePack

jed

!!Акция!!

Alien_Rage

RePack

fifa19

RePack

Assassins Creed: Odyssey

RePack

NEED FOR SPEED™ PAYBACK

4 сезон

9 сезон

Бесстыжие 9 сезон

Все сериалы

все сериалы на PB.wtf

RePack

FAR CRY 5
  

Безумный Пьеро / Pierrot le fou (Жан-Люк Годар) [1965, драма, мелодрама, криминал, BDRip 720p by msltel] 2 x MVO piratbit.org

Безумный Пьеро через торрент piratbit.org

Размер: 3.85 GB | Добавлен: 10 мес. назад | Торрент скачан:1 раз
Скачать  

21-12-2019 09:38 Безумный Пьеро Скачать торрент  

Название: Безумный Пьеро
Оригинальное название: Pierrot le fou
Год выпуска: 1965
Страна: Франция, Италия
Жанр: драма, мелодрама, криминал
Продолжительность: 01:50:19
Перевод: профессиональный многоголосый

Режиссер: Жан-Люк Годар
В ролях: Жан-Поль Бельмондо, Анна Карина, Грациелла Гальвани, Айша Абадир, Анри Атталь, Паскаль Обье, Раймон Девос, Роже Дютуа, Сэмюэл Фуллер, Пьер Анин, Джимми Каруби, Жан-Пьер Лео, Ганс Мейер, Криста Нелл, Дирк Сандерс, Жорж Стаке, Ласло Сабо, Доминик Зарди

О фильме: Фердинанд и нанятая присматривать за его ребёнком приходящая няня Марианна сбегают из дома и едут к морю на угнанном автомобиле, набитом крадеными деньгами. Он оставляет позади богатую жену, а она — неприятности, связанные с бандитами. Преследуемые полицией, они сжигают автомобиль вместе с деньгами мафии и скрываются на безлюдном острове. Но что-то в их отношениях не складывается, и роман кончается... Фильм снят по роману Лайонела Уайта «Одержимость».



Качество: BDRip 720p
Формат: MKV
Видео: MPEG-4 AVC, 4166 Кбит/с, 1280x544
Аудио 1: русский, AC3, 192 kbps, 2 ch, 48 kHz [закадровый многоголосый, Ruscico]
Аудио 2: русский, AC3, 192 kbps, 1 ch, 48 kHz [закадровый многоголосый, SomeWax]
Аудио 3: французский, AC3, 448 kbps, 1 ch, 48 kHz [оригинал]
Субтитры 1: русские
Субтитры 2: английские
Главы/чаптеры
Общее
Уникальный идентификатор : 188370628623600606032920416959842269118 (0x8DB6DD09CF1CD673BF3493360BE4B7BE)
Полное имя : D:\Video\Безумный Пьеро.1965.BDRip 720p by msltel.mkv
Формат : Matroska
Версия формата : Version 4
Размер файла : 3,85 Гбайт
Продолжительность : 1 ч. 50 м.
Общий поток : 5000 Кбит/сек
Название фильма : Rip by msltel
Дата кодирования : UTC 2019-12-21 02:38:39
Программа кодирования : mkvmerge v8.2.0 ('World of Adventure') 64bit
Библиотека кодирования : libebml v1.3.1 + libmatroska v1.4.2

Видео
Идентификатор : 1
Формат : AVC
Формат/Информация : Advanced Video Codec
Профиль формата : High@L4.1
Настройки формата : CABAC / 9 Ref Frames
Параметр CABAC формата : Да
Параметр RefFrames формата : 9 кадров
Идентификатор кодека : V_MPEG4/ISO/AVC
Продолжительность : 1 ч. 50 м.
Битрейт : 4166 Кбит/сек
Ширина : 1280 пикселей
Высота : 544 пикселя
Соотношение сторон : 2,35:1
Режим частоты кадров : Постоянный
Частота кадров : 23,976 (24000/1001) кадра/сек
Цветовое пространство : YUV
Субдискретизация насыщенности : 4:2:0
Битовая глубина : 8 бит
Тип развёртки : Прогрессивная
Бит/(Пиксели*Кадры) : 0.250
Размер потока : 3,21 Гбайт (83%)
Библиотека кодирования : x264 core 157 r2935 545de2f
Настройки программы : cabac=1 / ref=9 / deblock=1:-2:-2 / analyse=0x3:0x113 / me=umh / subme=11 / psy=1 / psy_rd=1.00:0.15 / mixed_ref=1 / me_range=32 / chroma_me=1 / trellis=2 / 8x8dct=1 / cqm=0 / deadzone=21,11 / fast_pskip=0 / chroma_qp_offset=-3 / threads=6 / lookahead_threads=1 / sliced_threads=0 / nr=0 / decimate=1 / interlaced=0 / bluray_compat=0 / constrained_intra=0 / bframes=7 / b_pyramid=2 / b_adapt=2 / b_bias=0 / direct=1 / weightb=1 / open_gop=0 / weightp=2 / keyint=230 / keyint_min=23 / scenecut=40 / intra_refresh=0 / rc_lookahead=40 / rc=crf / mbtree=0 / crf=20.5 / qcomp=0.60 / qpmin=0 / qpmax=69 / qpstep=4 / vbv_maxrate=50000 / vbv_bufsize=62500 / crf_max=0.0 / nal_hrd=none / filler=0 / ip_ratio=1.40 / pb_ratio=1.30 / aq=1:1.00
Язык : French
Default : Да
Forced : Нет

Аудио #1
Идентификатор : 2
Формат : AC-3
Формат/Информация : Audio Coding 3
Коммерческое название : Dolby Digital
Идентификатор кодека : A_AC3
Продолжительность : 1 ч. 50 м.
Вид битрейта : Постоянный
Битрейт : 192 Кбит/сек
Каналы : 2 канала
ChannelLayout : L R
Частота : 48,0 КГц
Частота кадров : 31,250 кадров/сек (1536 SPF)
Метод сжатия : С потерями
Размер потока : 151 Мбайт (4%)
Заголовок : MVO Ruscico
Язык : Russian
ServiceKind/String : Complete Main
Default : Да
Forced : Нет

Аудио #2
Идентификатор : 3
Формат : AC-3
Формат/Информация : Audio Coding 3
Коммерческое название : Dolby Digital
Идентификатор кодека : A_AC3
Продолжительность : 1 ч. 50 м.
Вид битрейта : Постоянный
Битрейт : 192 Кбит/сек
Каналы : 1 канал
ChannelLayout : C
Частота : 48,0 КГц
Частота кадров : 31,250 кадров/сек (1536 SPF)
Метод сжатия : С потерями
Размер потока : 151 Мбайт (4%)
Заголовок : MVO SomeWax
Язык : Russian
ServiceKind/String : Complete Main
Default : Нет
Forced : Нет

Аудио #3
Идентификатор : 4
Формат : AC-3
Формат/Информация : Audio Coding 3
Коммерческое название : Dolby Digital
Идентификатор кодека : A_AC3
Продолжительность : 1 ч. 50 м.
Вид битрейта : Постоянный
Битрейт : 448 Кбит/сек
Каналы : 1 канал
ChannelLayout : C
Частота : 48,0 КГц
Частота кадров : 31,250 кадров/сек (1536 SPF)
Метод сжатия : С потерями
Размер потока : 354 Мбайт (9%)
Заголовок : original
Язык : French
ServiceKind/String : Complete Main
Default : Нет
Forced : Нет

Текст #1
Идентификатор : 5
Формат : UTF-8
Идентификатор кодека : S_TEXT/UTF8
Идентификатор кодека/Информация : UTF-8 Plain Text
Продолжительность : 1 ч. 49 м.
Битрейт : 77 бит/сек
ElementCount : 1001
Размер потока : 62,0 Кбайт (0%)
Заголовок : русские
Язык : Russian
Default : Нет
Forced : Нет

Текст #2
Идентификатор : 6
Формат : UTF-8
Идентификатор кодека : S_TEXT/UTF8
Идентификатор кодека/Информация : UTF-8 Plain Text
Продолжительность : 1 ч. 48 м.
Битрейт : 48 бит/сек
ElementCount : 1158
Размер потока : 38,1 Кбайт (0%)
Заголовок : английские
Язык : English
Default : Нет
Forced : Нет

Меню
00:00:00.000 : :Ferdinand
00:05:36.002 : :Cocktail party
00:10:21.579 : :Marianne Renoir
00:15:05.696 : :Breakfast in bed
00:19:14.070 : :"A story, all mixed up"
00:22:28.597 : :Laurel and Hardy
00:26:44.645 : :Stories and accidents
00:32:00.001 : :Crossing France
00:34:25.563 : :'62 Ford Galaxie
00:40:46.736 : :Riviera
00:44:37.174 : :Perfect happiness
00:51:34.925 : :Sick of it
00:56:27.884 : :Play for the Americans
00:58:58.034 : :"My Fate Line"
01:04:36.790 : :Small world
01:08:57.884 : :Call from Marianne
01:15:55.509 : :Despair
01:19:37.356 : :The Princess and Pierrot
01:25:19.740 : :Going to meet Fred
01:30:11.239 : :Crazy setup
01:37:30.511 : :"Do you love me?"
01:43:25.241 : :Eternity
piratbit.org



Скачать Безумный Пьеро через торрент https://a.radikal.ru/a01/1912/80/addf811143dd.jpg Скачать фильм Безумный Пьеро через торрент бесплантно в хорошем качестве О фильме: Фердинанд и нанятая присматривать за его ребёнком приходящая няня Марианна сбегают из дома и едут к морю на угнанном автомобиле, ... 5 10 1
Торрент: Зарегистрирован [2019-12-21 09:38] · скачан: 1 раз
Статус: √ проверено
Размер: 3.85 GB
Как cкачать? Как скачать Безумный Пьеро через торрент | qTorrent

% Раздел Тема Автор DL S | L
Классика зарубежного кино [ 9.63 GB ] Безумный Пьеро / Pierrot le fou [1965 BDRip 1080p by msltel] 2 x MVO msltel Скачать
1 | 0

28-11-2019 20:33  

Отключить всю рекламу на сайте

    Дорогой пользователь! Огромная просьба, поблагодарите релизера, оцените раздачу и оставьте свои комментарий, если Вы скачали Безумный Пьеро через торрент бесплатно! Внесите свою лепту в развитие PiratBit!
    Комментировать посты могут только пользователи прошедшие не сложную регистрацию
    Показать сообщения:    

    Безумный Пьеро через торрент
    Скачать бесплатно Безумный Пьеро
    Безумный Пьеро скачать торрент
    Безумный Пьеро смотреть онлайн
    Cкачать фильм Безумный Пьеро бесплатно
    Безумный Пьеро скачать торрент в хорошем качестве
    Безумный Пьеро смотреть онлайн бесплатно в хорошем качестве


    Вы не можете начинать темы
    Вы не можете отвечать на сообщения
    Вы не можете редактировать свои сообщения
    Вы не можете удалять свои сообщения
    Вы не можете голосовать в опросах
    Вы не можете прикреплять файлы к сообщениям
    Вы можете скачивать файлы