Ссылка на приватное зеркало нашего сайта всего за 1$. Внимание количество ограничено!!!

2 сезон

iTunes

1 сезон

1

iTunes

iTunes

iTunes

1 сезон

RePack

30

ИГРА 18+

pack

ВАЖНО

!!Акция!!

Alien_RageХит недели

RePack

MK11
pack

Забери бонус

RePack

jed

!!Акция!!

Alien_Rage

RePack

fifa19

RePack

Assassins Creed: Odyssey

RePack

NEED FOR SPEED™ PAYBACK

4 сезон

9 сезон

Бесстыжие 9 сезон

Все сериалы

все сериалы на PB.wtf

RePack

FAR CRY 5
  

Дело доктора Лорана / Le cas du Dr Laurent (Жан-Поль Ле Шануа) [1957, драма, BDRip 1080p by msltel] AVO piratbit.org

Дело доктора Лорана через торрент piratbit.org

Размер: 10.55 GB | Добавлен: 9 мес. назад | Торрент скачан:0 раз
Скачать  

22-12-2019 09:29 Дело доктора Лорана Скачать торрент  

Название: Дело доктора Лорана
Оригинальное название: Le cas du Dr Laurent
Год выпуска: 1957
Страна: Франция
Жанр: драма
Продолжительность: 01:54:09
Перевод: авторский

Режиссер: Жан-Поль Ле Шануа
В ролях: Жан Габен, Николь Курсель, Сильвия Монфор, Ариус, Даксели, Люсьен Галламан, Жосслен, Маг Авриль, Марта Марти, Жермен де Франс, Рэмона, Оран Демазис, Ивонна Гайми, Анри Жак Юэ, Вивиана Мери, Рири Бёф, Люче Дассас, Бальпетре, Мишель Барбэ, Жорж Лан

О фильме: Доктор Лоран переезжает из Парижа в деревню Сен-Мартен, чтобы стать преемником доктора Бастида. Едва сойдя с автобуса, Лоран услышал из окна дома женский крик, и узнал, что это страдает будущая мама, которой вот-вот предстоит родить первенца. Бедняжка испытывает такие сильные боли, что ей не помогает даже морфий... Этот фильм посвящается пионерам психопрофилактического метода безболезненных родов. Помощь в съёмках фильма оказал родильный дом профсоюза металлургов в Париже, где этот метод был впервые применен во Франции в 1952 году.



Качество: BDRip 1080p
Формат: MKV
Видео: MPEG-4 AVC, 11.5 Mбит/с, 1452x1080, 24 кадр/с
Аудио 1: русский, AC3, 192 kbps, 2 ch, 48 kHz [авторский, Роман Янкелевич]
Аудио 2: французский, DTS, 1509 kbps, 2 ch, 48 kHz [оригинал]
Субтитры 1: русские
Субтитры 2: французские
Субтитры 3: английские
Главы/чаптеры
Общее
Уникальный идентификатор : 190852184386196358709418753434327195699 (0x8F94CB2F034949C289970596A5402033)
Полное имя : D:\Video\Дело доктора Лорана.1957.BDRip 1080p by msltel.mkv
Формат : Matroska
Версия формата : Version 4
Размер файла : 10,6 Гбайт
Продолжительность : 1 ч. 54 м.
Общий поток : 13,2 Мбит/сек
Название фильма : Rip by msltel
Дата кодирования : UTC 2019-12-22 06:57:13
Программа кодирования : mkvmerge v8.2.0 ('World of Adventure') 64bit
Библиотека кодирования : libebml v1.3.1 + libmatroska v1.4.2

Видео
Идентификатор : 1
Формат : AVC
Формат/Информация : Advanced Video Codec
Профиль формата : High@L4.1
Настройки формата : CABAC / 4 Ref Frames
Параметр CABAC формата : Да
Параметр RefFrames формата : 4 кадра
Идентификатор кодека : V_MPEG4/ISO/AVC
Продолжительность : 1 ч. 54 м.
Битрейт : 11,5 Мбит/сек
Ширина : 1452 пикселя
Высота : 1080 пикселей
Соотношение сторон : 4:3
Режим частоты кадров : Постоянный
Частота кадров : 24,000 кадра/сек
Цветовое пространство : YUV
Субдискретизация насыщенности : 4:2:0
Битовая глубина : 8 бит
Тип развёртки : Прогрессивная
Бит/(Пиксели*Кадры) : 0.306
Размер потока : 9,19 Гбайт (87%)
Библиотека кодирования : x264 core 157 r2935 545de2f
Настройки программы : cabac=1 / ref=4 / deblock=1:-2:-2 / analyse=0x3:0x113 / me=umh / subme=11 / psy=1 / psy_rd=1.00:0.15 / mixed_ref=1 / me_range=32 / chroma_me=1 / trellis=2 / 8x8dct=1 / cqm=0 / deadzone=21,11 / fast_pskip=0 / chroma_qp_offset=-3 / threads=6 / lookahead_threads=1 / sliced_threads=0 / nr=0 / decimate=1 / interlaced=0 / bluray_compat=0 / constrained_intra=0 / bframes=7 / b_pyramid=2 / b_adapt=2 / b_bias=0 / direct=1 / weightb=1 / open_gop=0 / weightp=2 / keyint=230 / keyint_min=23 / scenecut=40 / intra_refresh=0 / rc_lookahead=40 / rc=crf / mbtree=0 / crf=19.5 / qcomp=0.60 / qpmin=0 / qpmax=69 / qpstep=4 / vbv_maxrate=50000 / vbv_bufsize=62500 / crf_max=0.0 / nal_hrd=none / filler=0 / ip_ratio=1.40 / pb_ratio=1.30 / aq=1:1.00
Язык : French
Default : Да
Forced : Нет

Аудио #1
Идентификатор : 2
Формат : AC-3
Формат/Информация : Audio Coding 3
Коммерческое название : Dolby Digital
Идентификатор кодека : A_AC3
Продолжительность : 1 ч. 54 м.
Вид битрейта : Постоянный
Битрейт : 192 Кбит/сек
Каналы : 2 канала
ChannelLayout : L R
Частота : 48,0 КГц
Частота кадров : 31,250 кадров/сек (1536 SPF)
Метод сжатия : С потерями
Размер потока : 157 Мбайт (1%)
Заголовок : Роман Янкелевич
Язык : Russian
ServiceKind/String : Complete Main
Default : Да
Forced : Нет

Аудио #2
Идентификатор : 3
Формат : DTS
Формат/Информация : Digital Theater Systems
Идентификатор кодека : A_DTS
Продолжительность : 1 ч. 54 м.
Вид битрейта : Постоянный
Битрейт : 1509 Кбит/сек
Каналы : 2 канала
ChannelLayout : Lt Rt
Частота : 48,0 КГц
Частота кадров : 93,750 кадра/сек (512 SPF)
Битовая глубина : 16 бит
Метод сжатия : С потерями
Размер потока : 1,20 Гбайт (11%)
Заголовок : original
Язык : French
Default : Нет
Forced : Нет

Текст #1
Идентификатор : 4
Формат : UTF-8
Идентификатор кодека : S_TEXT/UTF8
Идентификатор кодека/Информация : UTF-8 Plain Text
Продолжительность : 1 ч. 53 м.
Битрейт : 115 бит/сек
ElementCount : 1855
Размер потока : 95,9 Кбайт (0%)
Заголовок : русские
Язык : Russian
Default : Нет
Forced : Нет

Текст #2
Идентификатор : 5
Формат : UTF-8
Идентификатор кодека : S_TEXT/UTF8
Идентификатор кодека/Информация : UTF-8 Plain Text
Продолжительность : 1 ч. 50 м.
Битрейт : 84 бит/сек
ElementCount : 1842
Размер потока : 68,7 Кбайт (0%)
Заголовок : французские
Язык : French
Default : Нет
Forced : Нет

Текст #3
Идентификатор : 6
Формат : UTF-8
Идентификатор кодека : S_TEXT/UTF8
Идентификатор кодека/Информация : UTF-8 Plain Text
Продолжительность : 1 ч. 53 м.
Битрейт : 65 бит/сек
ElementCount : 1833
Размер потока : 54,3 Кбайт (0%)
Заголовок : английские
Язык : English
Default : Нет
Forced : Нет

Меню
00:00:00.000 : :Chapter 1
00:00:09.083 : :Chapter 2
00:06:32.542 : :Chapter 3
00:15:45.000 : :Chapter 4
00:20:26.208 : :Chapter 5
00:25:54.375 : :Chapter 6
00:35:12.292 : :Chapter 7
00:41:54.250 : :Chapter 8
00:55:25.625 : :Chapter 9
01:04:53.292 : :Chapter 10
01:10:14.542 : :Chapter 11
01:21:28.667 : :Chapter 12
01:30:11.333 : :Chapter 13
01:41:28.208 : :Chapter 14
piratbit.org



Скачать Дело доктора Лорана через торрент https://d.radikal.ru/d22/1912/60/925d48404f9e.jpg Скачать фильм Дело доктора Лорана через торрент бесплантно в хорошем качестве О фильме: Доктор Лоран переезжает из Парижа в деревню Сен-Мартен, чтобы стать преемником доктора Бастида. Едва сойдя с автобуса, Лоран ... 5 10 1
Торрент: Зарегистрирован [2019-12-22 09:29] · скачан: 0 раз
Статус: √ проверено
Размер: 10.55 GB
Как cкачать? Как скачать Дело доктора Лорана через торрент | qTorrent

% Раздел Тема Автор DL S | L
Классика зарубежного кино [ 3.99 GB ] Дело доктора Лорана / Le cas du Dr Laurent [1957 BDRip 720p by msltel] AVO msltel Скачать
1 | 0
Классика зарубежного кино [ 2.07 GB ] Дело доктора Лорана / Le cas du Dr Laurent [1957 BDRip by msltel] AVO msltel Скачать
1 | 0

28-11-2019 20:33  

Отключить всю рекламу на сайте

    Дорогой пользователь! Огромная просьба, поблагодарите релизера, оцените раздачу и оставьте свои комментарий, если Вы скачали Дело доктора Лорана через торрент бесплатно! Внесите свою лепту в развитие PiratBit!
    Комментировать посты могут только пользователи прошедшие не сложную регистрацию
    Показать сообщения:    

    Дело доктора Лорана через торрент
    Скачать бесплатно Дело доктора Лорана
    Дело доктора Лорана скачать торрент
    Дело доктора Лорана смотреть онлайн
    Cкачать фильм Дело доктора Лорана бесплатно
    Дело доктора Лорана скачать торрент в хорошем качестве
    Дело доктора Лорана смотреть онлайн бесплатно в хорошем качестве


    Вы не можете начинать темы
    Вы не можете отвечать на сообщения
    Вы не можете редактировать свои сообщения
    Вы не можете удалять свои сообщения
    Вы не можете голосовать в опросах
    Вы не можете прикреплять файлы к сообщениям
    Вы можете скачивать файлы