Ссылка на приватное зеркало нашего сайта всего за 1$. Внимание количество ограничено!!!

2 сезон

iTunes

1 сезон

1

iTunes

iTunes

iTunes

1 сезон

RePack

30

ИГРА 18+

pack

ВАЖНО

!!Акция!!

Alien_RageХит недели

RePack

MK11
pack

Забери бонус

RePack

jed

!!Акция!!

Alien_Rage

RePack

fifa19

RePack

Assassins Creed: Odyssey

RePack

NEED FOR SPEED™ PAYBACK

4 сезон

9 сезон

Бесстыжие 9 сезон

Все сериалы

все сериалы на PB.wtf

RePack

FAR CRY 5
  

Незначительные люди / Des gens sans importance (Анри Вернёй) [1956, драма, BDRip 1080p by msltel] AVO piratbit.org

Незначительные люди через торрент piratbit.org

Размер: 8.91 GB | Добавлен: 10 мес. назад | Торрент скачан:0 раз
Скачать  

23-12-2019 05:38 Незначительные люди Скачать торрент  

Название: Незначительные люди
Оригинальное название: Des gens sans importance
Год выпуска: 1956
Страна: Франция
Жанр: драма
Продолжительность: 01:43:08
Перевод: авторский

Режиссер: Анри Вернёй
В ролях: Жан Габен, Франсуаза Арнуль, Пьер Монди, Иветт Этьеван, Дани Каррель, Нан Жермон, Андре Далибер, Пьер Фромон, Ален Буветт, Эдмон Ардиссон

О фильме: Уже немолодой водитель-дальнобойщик, обременённый женой и тремя детьми, влюбляется в молоденькую официантку придорожного кафе Кло. Она отвечает ему взаимностью. Жизнь простого работяги трудна, жизнь простой официантки - тоже. Разве может быть что-то хорошее у них? Лишь на мгновения...



Качество: BDRip 1080p
Формат: MKV
Видео: MPEG-4 AVC, 12.2 Mбит/с, 1480x1080, 24 кадр/с
Аудио: русский, AC3, 192 kbps, 2 ch, 48 kHz [авторский, Роман Янкелевич]
Субтитры 1: французские
Субтитры 2: английские
Главы/чаптеры
Общее
Уникальный идентификатор : 206244018300310337432781179981464588534 (0x9B29272F90988DFA8CA94DB3C437D0F6)
Полное имя : D:\Video\Незначительные люди.1955.BDRip 1080p by msltel.mkv
Формат : Matroska
Версия формата : Version 4
Размер файла : 8,91 Гбайт
Продолжительность : 1 ч. 43 м.
Общий поток : 12,4 Мбит/сек
Название фильма : Rip by msltel
Дата кодирования : UTC 2019-12-23 02:30:33
Программа кодирования : mkvmerge v8.2.0 ('World of Adventure') 64bit
Библиотека кодирования : libebml v1.3.1 + libmatroska v1.4.2

Видео
Идентификатор : 1
Формат : AVC
Формат/Информация : Advanced Video Codec
Профиль формата : High@L4.1
Настройки формата : CABAC / 4 Ref Frames
Параметр CABAC формата : Да
Параметр RefFrames формата : 4 кадра
Идентификатор кодека : V_MPEG4/ISO/AVC
Продолжительность : 1 ч. 43 м.
Битрейт : 12,2 Мбит/сек
Ширина : 1480 пикселей
Высота : 1080 пикселей
Соотношение сторон : 1,370
Режим частоты кадров : Постоянный
Частота кадров : 23,976 (24000/1001) кадра/сек
Цветовое пространство : YUV
Субдискретизация насыщенности : 4:2:0
Битовая глубина : 8 бит
Тип развёртки : Прогрессивная
Бит/(Пиксели*Кадры) : 0.318
Размер потока : 8,77 Гбайт (98%)
Библиотека кодирования : x264 core 157 r2935 545de2f
Настройки программы : cabac=1 / ref=4 / deblock=1:-2:-2 / analyse=0x3:0x113 / me=umh / subme=11 / psy=1 / psy_rd=1.00:0.15 / mixed_ref=1 / me_range=32 / chroma_me=1 / trellis=2 / 8x8dct=1 / cqm=0 / deadzone=21,11 / fast_pskip=0 / chroma_qp_offset=-3 / threads=6 / lookahead_threads=1 / sliced_threads=0 / nr=0 / decimate=1 / interlaced=0 / bluray_compat=0 / constrained_intra=0 / bframes=8 / b_pyramid=2 / b_adapt=2 / b_bias=0 / direct=1 / weightb=1 / open_gop=0 / weightp=2 / keyint=230 / keyint_min=23 / scenecut=40 / intra_refresh=0 / rc_lookahead=40 / rc=crf / mbtree=0 / crf=20.7 / qcomp=0.60 / qpmin=0 / qpmax=69 / qpstep=4 / vbv_maxrate=50000 / vbv_bufsize=62500 / crf_max=0.0 / nal_hrd=none / filler=0 / ip_ratio=1.40 / pb_ratio=1.30 / aq=1:1.00
Язык : French
Default : Да
Forced : Нет

Аудио
Идентификатор : 2
Формат : AC-3
Формат/Информация : Audio Coding 3
Коммерческое название : Dolby Digital
Идентификатор кодека : A_AC3
Продолжительность : 1 ч. 43 м.
Вид битрейта : Постоянный
Битрейт : 192 Кбит/сек
Каналы : 2 канала
ChannelLayout : L R
Частота : 48,0 КГц
Частота кадров : 31,250 кадров/сек (1536 SPF)
Метод сжатия : С потерями
Размер потока : 142 Мбайт (2%)
Заголовок : Роман Янкелевич
Язык : Russian
ServiceKind/String : Complete Main
Default : Да
Forced : Нет

Текст #1
Идентификатор : 3
Формат : UTF-8
Идентификатор кодека : S_TEXT/UTF8
Идентификатор кодека/Информация : UTF-8 Plain Text
Продолжительность : 1 ч. 43 м.
Битрейт : 46 бит/сек
ElementCount : 1063
Размер потока : 34,8 Кбайт (0%)
Заголовок : французские
Язык : French
Default : Нет
Forced : Нет

Текст #2
Идентификатор : 4
Формат : UTF-8
Идентификатор кодека : S_TEXT/UTF8
Идентификатор кодека/Информация : UTF-8 Plain Text
Продолжительность : 1 ч. 41 м.
Битрейт : 42 бит/сек
ElementCount : 931
Размер потока : 31,8 Кбайт (0%)
Заголовок : английские
Язык : English
Default : Нет
Forced : Нет

Меню
00:00:00.000 : en:Chapter 01
00:00:02.000 : en:Chapter 02
00:00:12.083 : en:Chapter 03
00:06:14.083 : en:Chapter 04
00:19:18.416 : en:Chapter 05
00:43:52.833 : en:Chapter 06
01:02:42.041 : en:Chapter 07
01:16:54.791 : en:Chapter 08
01:33:02.375 : en:Chapter 09
piratbit.org



Скачать Незначительные люди через торрент https://a.radikal.ru/a09/1912/8c/946d6eff038e.jpg Скачать фильм Незначительные люди через торрент бесплантно в хорошем качестве О фильме: Уже немолодой водитель-дальнобойщик, обременённый женой и тремя детьми, влюбляется в молоденькую официантку придорожного кафе ... 5 10 1
Info! Золотая раздача, скачанное не засчитывается.
Торрент: Зарегистрирован [2019-12-23 05:38] · скачан: 0 раз
Статус: √ проверено
Размер: 8.91 GB
Как cкачать? Как скачать Незначительные люди через торрент | qTorrent

% Раздел Тема Автор DL S | L
Классика зарубежного кино [ 3.57 GB ] Незначительные люди / Des gens sans importance [1956 BDRip 720p by msltel] AVO msltel Скачать
1 | 0
Классика зарубежного кино [ 1.77 GB ] Незначительные люди / Des gens sans importance [1956 BDRip by msltel] AVO msltel Скачать
1 | 0

28-11-2019 20:33  

Отключить всю рекламу на сайте

    Дорогой пользователь! Огромная просьба, поблагодарите релизера, оцените раздачу и оставьте свои комментарий, если Вы скачали Незначительные люди через торрент бесплатно! Внесите свою лепту в развитие PiratBit!
    Комментировать посты могут только пользователи прошедшие не сложную регистрацию
    Показать сообщения:    

    Незначительные люди через торрент
    Скачать бесплатно Незначительные люди
    Незначительные люди скачать торрент
    Незначительные люди смотреть онлайн
    Cкачать фильм Незначительные люди бесплатно
    Незначительные люди скачать торрент в хорошем качестве
    Незначительные люди смотреть онлайн бесплатно в хорошем качестве


    Вы не можете начинать темы
    Вы не можете отвечать на сообщения
    Вы не можете редактировать свои сообщения
    Вы не можете удалять свои сообщения
    Вы не можете голосовать в опросах
    Вы не можете прикреплять файлы к сообщениям
    Вы можете скачивать файлы