Доктор Стрэндж

Лицензия

Добыча

Дубляж

Уэнсдэй

1 сезон

Тор

Дубляж

В эфире

Дубляж

Там, где раки поют

MVO

Властелин колец

1 сезон

Deluxe

pack

Рекомендуем

30

Пиратка

ВАЖНО

ВАЖНО

Ghostwire

Пиратка

jed

RePack

nioh2

RePack

RDR2

RePack

NEED FOR SPEED™ PAYBACK

RePack

скачать торрент

Кинопоиск HD

Острые козырьки 6 сезон

6 сезон

FAR CRY 6

RePack

скачать торрент

Лицензия

скачать торрент

MVO

1

1 сезон

скачать торрент

1 сезон

скачать торрент

Лицензия

  

Коко-ди Коко-да / Koko-di Koko-da (Йоханнес Нюхольм) [2019 г., ужасы, WEB-DLRip, Дубляж "iTunes"]

Коко-ди Коко-да через торрент piratbit.org

Размер: 707 MB | Добавлен: 2 года 11 мес. назад | Торрент скачан:50 раз
Смотреть онлайн | Скачать   

23-12-2019 18:37 Коко-ди Коко-да Скачать торрент  

Коко-ди Коко-да / Koko-di Koko-da
Год выпуска: 2019
Страна: Швеция, Дания / Beofilm, Film i Väst
Жанр: ужасы
Продолжительность: 01:29:29
Перевод: Дубляж (iTunes)

Режиссер: Йоханнес Нюхольм

rating

В ролях: Ильва Галлон, Лейф Эдлунд Йоханссон, Петер Белли, Катарина Якобсон, Морад Балу Хачадорян, Брэнди Литманен

Описание: Молодая пара отправляется в путешествие по живописным местам. В лесу они встречают артистов цирка, которые устраивают им забавные игры, терроризируя супругов. Снова и снова они вынуждены проживать этот день, чтобы найти выход и разорвать порочный круг.

Качество: WEB-DLRip
Формат: AVI
Видео кодек: DivX
Аудио кодек: MP3
Видео: 640x360 (1.78:1), 24.000 fps, DivX Codec 4.x ~966 kbps avg, 0.17 bit/pixel
Аудио: 48 kHz, MPEG Layer 3, 2 ch, ~128.00 kbps avg
скриншот   скриншот   скриншот   скриншот  

Общее
Полное имя : F:\ФИЛЬМЫ\Коко-ди Коко-да.2019.D.WEB-DLRip.700MB.avi
Формат : AVI
Формат/Информация : Audio Video Interleave
Размер файла : 707 Мбайт
Продолжительность : 1 ч. 29 м.
Общий поток : 1104 Кбит/сек
Программа кодирования : VirtualDubMod 1.5.10.3 | www.virtualdub-fr.org || (build 2550/release)
Библиотека кодирования : VirtualDubMod build 2550/release

Видео
Идентификатор : 0
Формат : MPEG-4 Visual
Профиль формата : Advanced Simple@L5
Настройки формата : BVOP3 / GMC3 / QPel
Параметр BVOP формата : 3
Параметр QPel формата : Да
Параметр GMC формата : 3 точки перехода
Параметр матрицы формата : Default (MPEG)
Идентификатор кодека : DIVX
Идентификатор кодека/Информация : Project Mayo
Идентификатор кодека/Подсказка : DivX 4
Продолжительность : 1 ч. 29 м.
Битрейт : 967 Кбит/сек
Ширина : 640 пикселей
Высота : 360 пикселей
Соотношение сторон : 16:9
Частота кадров : 24,000 кадра/сек
Цветовое пространство : YUV
Субдискретизация насыщенности : 4:2:0
Битовая глубина : 8 бит
Тип развёртки : Прогрессивная
Метод сжатия : С потерями
Бит/(Пиксели*Кадры) : 0.175
Размер потока : 619 Мбайт (88%)
Библиотека кодирования : XviD 1.2.1 (UTC 2008-12-04)

Аудио
Идентификатор : 1
Формат : MPEG Audio
Версия формата : Version 1
Профиль формата : Layer 3
Настройки формата : Joint stereo / MS Stereo
Идентификатор кодека : 55
Идентификатор кодека/Подсказка : MP3
Продолжительность : 1 ч. 29 м.
Вид битрейта : Постоянный
Битрейт : 128 Кбит/сек
Каналы : 2 канала
Частота : 48,0 КГц
Частота кадров : 41,667 кадра/сек (1152 SPF)
Метод сжатия : С потерями
Размер потока : 81,9 Мбайт (12%)
Выравнивание : Соединение по промежуткам
Продолжительность промежутка : 42 мс. (1,00 видеокадр)
Время предзагрузки промежутка : 504 мс.
Библиотека кодирования : LAME3.99r
Настройки программы : -m j -V 4 -q 2 -lowpass 17 -b 128




Скачать Коко-ди Коко-да через торрент https://pic1.kartinco.top/images/12/oop4w.jpg Скачать, смотреть онлайн Коко-ди Коко-да бесплантно в хорошем качестве Описание: Молодая пара отправляется в путешествие по живописным местам. В лесу они встречают артистов цирка, которые устраивают им забавные ... 10 10 2
Торрент: Зарегистрирован [2019-12-23 18:37] · скачан: 50 раз
Статус: √ проверено
Размер: 707 MB
Как cкачать? Как скачать Коко-ди Коко-да через торрент | UTorrent

% Раздел Тема Автор DL S | L
Фильмы 2019-2020 [DVDrip, WEB-DLRip, HDrip] (DUB, MVO) [ 1.42 GB ] Коко-ди Коко-да / Koko-di Koko-da | Лицензия | BDRip Twi7ter Скачать
2 | 1
Фильмы (WEB-DL 720p, 1080p) [ 3.39 GB ] Коко-ди Коко-да / Koko-di Koko-da | iTunes | 1080p bober100 Скачать
1 | 0
Фильмы 2019-2020 [DVDrip, WEB-DLRip, HDrip] (DUB, MVO) [ 1.42 GB ] Коко-ди Коко-да / Koko-di Koko-da | iTunes | BDRip bober100 Скачать
1 | 0

28-11-2019 20:33  


Отключить вcю реклaмy на сайте, в т.ч. и в плеере онлайн просмотра!

    Дорогой пользователь! Огромная просьба, поблагодарите релизера, оцените раздачу и оставьте свои комментарий, если Вы скачали Коко-ди Коко-да через торрент бесплатно!!
    Комментировать посты могут только пользователи прошедшие не сложную регистрацию
    Показать сообщения:    


    Коко-ди Коко-да через торрент
    Скачать бесплатно Коко-ди Коко-да
    Коко-ди Коко-да скачать торрент
    Коко-ди Коко-да смотреть онлайн
    Cкачать фильм Коко-ди Коко-да бесплатно
    Коко-ди Коко-да скачать торрент в хорошем качестве
    Коко-ди Коко-да смотреть онлайн бесплатно в хорошем качестве
    Вы не можете начинать темы
    Вы не можете отвечать на сообщения
    Вы не можете редактировать свои сообщения
    Вы не можете удалять свои сообщения
    Вы не можете голосовать в опросах
    Вы не можете прикреплять файлы к сообщениям
    Вы можете скачивать файлы
    Коко-ди Коко-да / Koko-di Koko-da [2019 г., ужасы, WEB-DLRip, Дубляж "iTunes"] смотреть онлайн, скачать торрент picoco.icu