Лицензия

MVO

1

1 сезон

Лицензия

Лицензия

13

MVO

1 сезон

Deluxe Edition

pack

Рекомендуем

30

Repack

ВАЖНО

ВАЖНО

Ghostwire

RePack

jed

RePack

fifa19

RePack

RDR2

RePack

NEED FOR SPEED™ PAYBACK

RePack

Кинопоиск HD

 Острые козырьки 6 сезон

6 сезон

FAR CRY 6

RePack

Лицензия

MVO

1

1 сезон

1 сезон

Лицензия

  

Если ты прав... (Юрий Егоров) [1964, СССР, мелодрама, SATRip от AVP Studio]

Если ты прав... через торрент piratbit.org

Качают: 1 [ 0 KB/s ]
Размер: 1.09 GB | Добавлен: 2 года 9 мес. назад | Торрент скачан:27 раз
Смотреть онлайн Если ты прав... | Скачать   

25-12-2019 09:15 Если ты прав... Скачать торрент  

Если ты прав...
Страна: СССР
Производство: Киностудия им. Горького

Жанр: мелодрама
Год выпуска: 1964
Продолжительность: 01:18:50

Перевод: Не требуется
Cубтитры: нет
Оригинальная аудиодорожка: русский

Режиссер: Юрий Егоров


Станислав Любшин, Жанна Болотова, Алексей Краснопольский, Галина Соколова, Геннадий Сайфулин, Анатолий Волков (III), Валентин Грачёв, Дмитрий Шутов, Иван Лапиков, Григорий Лямпе, Михаил Львов, Михаил Медведев, Виктор Щеглов, Николай Ковшов, Пётр Вишняков...
Об актёрах подробней


Галя, потерявшая во время войны родителей, воспитывалась в детском доме, а когда реабилитировали ее дедушку, они стали жить вдвоем. Однажды в квартире поломался телефон, и Галя в поисках мастера обратилась в службу быта. Так в их квартире появился Алексей.

Исходник: DVB
Качество видео: SATRip
Формат видео: AVI

Видео: 704x528 (4:3), 25,000 кадров/сек, XviD ~ 1778 kbps avg, 0.191 bit/pixel
Аудио: 48 kHz, Dolby Digital AC3 2.0, 192 kbps

Раздача от:
Общее
Полное имя : Esli.ty.prav...1964.SATRip_[New-team]_by_AVP_Studio.avi
Формат : AVI
Формат/Информация : Audio Video Interleave
Размер файла : 1,09 Гбайт
Продолжительность : 1 ч. 18 м.
Общий поток : 1979 Кбит/сек
Программа кодирования : VirtualDubMod 1.5.10.3 | www.virtualdub-fr.org || (build 2550/release)
Библиотека кодирования : VirtualDubMod build 2550/release

Видео
Идентификатор : 0
Формат : MPEG-4 Visual
Профиль формата : Advanced Simple@L5
Настройки формата : BVOP1 / Custom Matrix
Параметр BVOP формата : 1
Параметр QPel формата : Нет
Параметр GMC формата : Без точки перехода
Параметр матрицы формата : Выборочная
Идентификатор кодека : XVID
Идентификатор кодека/Подсказка : XviD
Продолжительность : 1 ч. 18 м.
Битрейт : 1778 Кбит/сек
Ширина : 704 пикселя
Высота : 528 пикселей
Соотношение сторон : 4:3
Частота кадров : 25,000 кадров/сек
Цветовое пространство : YUV
Субдискретизация насыщенности : 4:2:0
Битовая глубина : 8 бит
Тип развёртки : Прогрессивная
Метод сжатия : С потерями
Бит/(Пиксели*Кадры) : 0.191
Размер потока : 1002 Мбайт (90%)
Библиотека кодирования : XviD 73

Аудио
Идентификатор : 1
Формат : AC-3
Формат/Информация : Audio Coding 3
Коммерческое название : Dolby Digital
Идентификатор кодека : 2000
Продолжительность : 1 ч. 18 м.
Вид битрейта : Постоянный
Битрейт : 192 Кбит/сек
Каналы : 2 канала
ChannelLayout : L R
Частота : 48,0 КГц
Частота кадров : 31,250 кадров/сек (1536 SPF)
Битовая глубина : 16 бит
Метод сжатия : С потерями
Размер потока : 108 Мбайт (10%)
Выравнивание : Разделение по промежуткам
Продолжительность промежутка : 40 мс. (1,00 видеокадр)
Время предзагрузки промежутка : 500 мс



Скачать Если ты прав... через торрент http://a.radikal.ru/a08/1912/af/1410eaa24b4b.png Скачать, смотреть онлайн Если ты прав... бесплантно в хорошем качестве Год выпуска: 1964Продолжительность: 01:18:50Перевод: Не требуетсяCубтитры: нетОригинальная аудиодорожка: русскийРежиссер: Юрий ... 5 10 1
Торрент: Зарегистрирован [2019-12-25 09:15] · скачан: 27 раз
Статус: √ проверено
Размер: 1.09 GB
Как cкачать? Как скачать Если ты прав... через торрент | UTorrent

% Раздел Тема Автор DL S | L
Кино СССР [ 1.09 GB ] Если ты прав... | | SATRip-AVC от AVP Studio AVP Studio Скачать
3 | 1

28-11-2019 20:33  

Отключить вcю реклaмy на сайте

    Дорогой пользователь! Огромная просьба, поблагодарите релизера, оцените раздачу и оставьте свои комментарий, если Вы скачали Если ты прав... через торрент бесплатно!!
    Комментировать посты могут только пользователи прошедшие не сложную регистрацию
    Показать сообщения:    


    Если ты прав... через торрент
    Скачать бесплатно Если ты прав...
    Если ты прав... скачать торрент
    Если ты прав... смотреть онлайн
    Cкачать фильм Если ты прав... бесплатно
    Если ты прав... скачать торрент в хорошем качестве
    Если ты прав... смотреть онлайн бесплатно в хорошем качестве
    Вы не можете начинать темы
    Вы не можете отвечать на сообщения
    Вы не можете редактировать свои сообщения
    Вы не можете удалять свои сообщения
    Вы не можете голосовать в опросах
    Вы не можете прикреплять файлы к сообщениям
    Вы можете скачивать файлы