Достать ножи: Стеклянная луковица

MVO

Добыча

Дубляж

Уэнсдэй

1 сезон

Тор

Дубляж

13 клиническая

1 сезон

Жестокая ночь

MVO

Одни из нас

1 сезон

Deluxe

pack

Рекомендуем

30

Пиратка

ВАЖНО

ВАЖНО

Ghostwire

Пиратка

jed

RePack

nioh2

RePack

RDR2

RePack

NEED FOR SPEED™ PAYBACK

RePack

скачать торрент

Кинопоиск HD

Острые козырьки 6 сезон

6 сезон

FAR CRY 6

RePack

скачать торрент

Лицензия

скачать торрент

MVO

1

1 сезон

скачать торрент

1 сезон

скачать торрент

Лицензия

  

Джокер / Joker (Тодд Филлипс) [2019, Триллер, драма, криминал, UHD BDRemux 2160p] [Dolby Vision TV] Дубляж [Лицензия] (rus, ukr) +MVO [HDRezka]

Джокер через торрент piratbit.org

Раздают: 1 [ 561 KB/s ]
Размер: 43.15 GB | Добавлен: 3 года 1 мес. назад | Торрент скачан:169 раз
Смотреть онлайн | Скачать | Поддержите нас   

27-12-2019 23:29 Джокер Скачать торрент  

Джокер / Joker
Год выпуска: 2019
Страна: Канада, США
Студия: Warner Bros., Village Roadshow Pictures, DC Entertainment, DC Comics, 22 & Indiana Pictures
Жанр: Триллер, драма, криминал
Продолжительность: 02:01:49
Перевод:
#1: Дублированный | Лицензия
#2: Профессиональный (многоголосый) | HDRezka
#3: Авторский | Чадов
Субтитры: Русские (Forced, full [iTunes]), (Forced, full [Enigma]), английские

Режиссер: Тодд Филлипс

rating

В ролях:

Хоакин Феникс (Arthur Fleck), Роберт Де Ниро (Murray Franklin), Зази Битц (Sophie Dumond), Фрэнсис Конрой (Penny Fleck), Бретт Каллен (Thomas Wayne), Шей Уигэм (Detective Burke), Билл Кэмп (Detective Garrity), Гленн Флешлер (Randall), Ли Гилл (Gary), Джош Пэйс (Hoyt Vaughn), Рокко Луна (GiGi Dumond), Марк Мэрон (Gene Ufland)
Описание: Готэм, начало 1980-х годов. Комик Артур Флек живет с больной матерью, которая с детства учит его «ходить с улыбкой». Пытаясь нести в мир хорошее и дарить людям радость, Артур сталкивается с человеческой жестокостью и постепенно приходит к выводу, что этот мир получит от него не добрую улыбку, а ухмылку злодея Джокера.

Качество: UHD BDRemux 2160p | Dolby Vision TV
Формат: MP4

Видео: 3840x2160 at 23.976 fps, MPEG-H HEVC HDR, Dolby Vision Video, 50200 kbps avg
Аудио: 48 kHz, AC3, 5.1, 448 Kbps | Дублированный | RUS |
Данный вид релизов (контейнер MP4) предназначен для встроенного в ТВ (соответственно, с поддержкой DV) плеер.
Т.Е. Можно использовать как USB flash/HDD, так и DLNA / Plex - подобные сервисы/программы. дополнительный-внешний плеер не обязателен.

Внимание!
На моделях LG 2016 возможны сюрпризы "через раз", 2017-2018 должно идти без сюрпризов )
скриншот  скриншот  скриншот  скриншот  скриншот  

General
Complete name : F:Video111Joker.2019.Lic.BDREMUX.2160p.DV-TV.HDR.seleZenJoker.2019.Lic.BDREMUX.2160p.DV-TV.HDR.seleZen.mp4
Format : MPEG-4
Format profile : Base Media / Version 2
Codec ID : mp42 (mp42/dby1/isom)
File size : 43.1 GiB
Duration : 2 h 1 min
Overall bit rate : 50.7 Mb/s
Encoded date : UTC 2019-12-27 11:46:52
Tagged date : UTC 2019-12-27 11:46:52

Video #1
ID : 1
Format : HEVC
Format/Info : High Efficiency Video Coding
Format profile : Main 10@L5.1@High
HDR format : SMPTE ST 2086, HDR10 compatible
Codec ID : hev1
Codec ID/Info : High Efficiency Video Coding
Duration : 2 h 1 min
Bit rate : 50.2 Mb/s
Width : 3 840 pixels
Height : 2 160 pixels
Display aspect ratio : 16:9
Frame rate mode : Constant
Frame rate : 23.976 (24000/1001) FPS
Color space : YUV
Chroma subsampling : 4:2:0 (Type 2)
Bit depth : 10 bits
Bits/(Pixel*Frame) : 0.252
Stream size : 42.7 GiB (99%)
Default : No
Encoded date : UTC 2019-12-27 11:46:52
Tagged date : UTC 2019-12-27 11:46:52
Color range : Limited
Color primaries : BT.2020
Transfer characteristics : PQ
Matrix coefficients : BT.2020 non-constant
Mastering display color pri : Display P3
Mastering display luminance : min: 0.0050 cd/m2, max: 4000 cd/m2
Maximum Content Light Level : 992 cd/m2
Maximum Frame-Average Light : 120 cd/m2
Codec configuration box : hvcC

Video #2
ID : 2
Format : HEVC
Format/Info : High Efficiency Video Coding
Format profile : Main 10@L5.1@High
HDR format : Dolby Vision, Version 1.0, dvhe.07.06, EL+RPU / SMPTE ST 2086, HDR10 compatible
Codec ID : dvhe
Codec ID/Info : High Efficiency Video Coding with Dolby Vision
Duration : 2 h 1 min
Bit rate : 64.3 kb/s
Width : 1 920 pixels
Height : 1 080 pixels
Display aspect ratio : 16:9
Frame rate mode : Constant
Frame rate : 23.976 (24000/1001) FPS
Color space : YUV
Chroma subsampling : 4:2:0 (Type 2)
Bit depth : 10 bits
Bits/(Pixel*Frame) : 0.001
Stream size : 56.0 MiB (0%)
Default : No
Encoded date : UTC 2019-12-27 11:46:52
Tagged date : UTC 2019-12-27 11:46:52
Color range : Limited
Color primaries : BT.2020
Transfer characteristics : PQ
Matrix coefficients : BT.2020 non-constant
Mastering display color pri : Display P3
Mastering display luminance : min: 0.0050 cd/m2, max: 4000 cd/m2
Codec configuration box : hvcC+dvcC

Audio
ID : 3
Format : AC-3
Format/Info : Audio Coding 3
Commercial name : Dolby Digital
Codec ID : ac-3
Duration : 2 h 1 min
Bit rate mode : Constant
Bit rate : 448 kb/s
Channel(s) : 6 channels
Channel layout : L R C LFE Ls Rs
Sampling rate : 48.0 kHz
Frame rate : 31.250 FPS (1536 SPF)
Bit depth : 16 bits
Compression mode : Lossy
Stream size : 390 MiB (1%)
Language : Russian
Service kind : Complete Main
Default : No
Encoded date : UTC 2019-12-27 11:46:52
Tagged date : UTC 2019-12-27 11:46:52




Скачать Джокер через торрент https://img16.lostpic.net/2019/12/21/238439983b66b0447583e18df2564804.jpg Скачать, смотреть онлайн Джокер бесплантно в хорошем качестве Описание: Готэм, начало 1980-х годов. Комик Артур Флек живет с больной матерью, которая с детства учит его «ходить с улыбкой». Пытаясь ... 10 10 7
Info! Золотая раздача, скачанное не засчитывается.
Торрент: Зарегистрирован [2019-12-27 23:29] · скачан: 169 раз
Статус: √ проверено
Размер: 43.15 GB
Как cкачать? Как скачать Джокер через торрент | UTorrent

% Раздел Тема Автор DL S | L
Ultra HD (UHD: 2K, 4K, 8K) [ 39.62 GB ] Джокер / Joker | Лицензия | 2160p bober100 Скачать
1 | 0
Фильмы [HD 720p, 1080p] (Хороший звук DUB, MVO) [ 11.56 GB ] Джокер / Joker | Лицензия | 1080p bober100 Скачать
3 | 0
Ultra HD (UHD: 2K, 4K, 8K) [ 56.03 GB ] Джокер / Joker | Лицензия | 2160p bober100 Скачать
1 | 0
Ultra HD (UHD: 2K, 4K, 8K) [ 52.06 GB ] Джокер / Joker | Лицензия | 2160p sheker187 Скачать
1 | 0
Ultra HD (UHD: 2K, 4K, 8K) [ 15.39 GB ] Джокер / Joker | HDRezka Studio | 2160p sheker187 Скачать
2 | 0
Фильмы (Blu-ray, BD-Remux, HDDVD) [ 26.19 GB ] Джокер / Joker | Лицензия | BD Remux 1080p bober100 Скачать
2 | 0
Фильмы [HD 720p, 1080p] (Хороший звук DUB, MVO) [ 7.31 GB ] Джокер / Joker | Лицензия | 720p bober100 Скачать
1 | 0

28-11-2019 20:33  


Отключить вcю реклaмy на сайте, в т.ч. и в плеере онлайн просмотра!

    Дорогой пользователь! Огромная просьба, поблагодарите релизера, оцените раздачу и оставьте свои комментарий, если Вы скачали Джокер через торрент бесплатно!!
    Комментировать посты могут только пользователи прошедшие не сложную регистрацию
    Показать сообщения:    


    Джокер через торрент
    Скачать бесплатно Джокер
    Джокер скачать торрент
    Джокер смотреть онлайн
    Cкачать фильм Джокер бесплатно
    Джокер скачать торрент в хорошем качестве
    Джокер смотреть онлайн бесплатно в хорошем качестве
    Вы не можете начинать темы
    Вы не можете отвечать на сообщения
    Вы не можете редактировать свои сообщения
    Вы не можете удалять свои сообщения
    Вы не можете голосовать в опросах
    Вы не можете прикреплять файлы к сообщениям
    Вы можете скачивать файлы
    Джокер / Joker [2019, Триллер, драма, криминал, UHD BDRemux 2160p] [Dolby Vision TV] Дубляж [Лицензия] +MVO [HDRezka] смотреть онлайн, скачать торрент picoco.icu