Достать ножи: Стеклянная луковица

MVO

Добыча

Дубляж

Уэнсдэй

1 сезон

Тор

Дубляж

13 клиническая

1 сезон

Жестокая ночь

MVO

Одни из нас

1 сезон

Deluxe

pack

Рекомендуем

30

Пиратка

ВАЖНО

ВАЖНО

Ghostwire

Пиратка

jed

RePack

nioh2

RePack

RDR2

RePack

NEED FOR SPEED™ PAYBACK

RePack

скачать торрент

Кинопоиск HD

Острые козырьки 6 сезон

6 сезон

FAR CRY 6

RePack

скачать торрент

Лицензия

скачать торрент

MVO

1

1 сезон

скачать торрент

1 сезон

скачать торрент

Лицензия

  

Ирландец / The Irishman (Мартин Скорсезе) [2019, драма, криминал, биография, UHD WEB-DL 2160p] DVO [Кубик в кубе]

Ирландец через торрент piratbit.org

Размер: 27.37 GB | Добавлен: 3 года назад | Торрент скачан:106 раз
Смотреть онлайн | Скачать | Поддержите нас   

30-12-2019 14:21 Ирландец Скачать торрент  

Ирландец / The Irishman««His story changed history»»

Год выпуска: 2019
Страна: США
Жанр: криминал, драма, биография
Продолжительность: 03:29:27
Перевод: Профессиональный двухголосый | Кубик в кубе
Субтитры: Aнглийские
В ролях:

Роберт Де Ниро (Frank Sheeran), Аль Пачино (Jimmy Hoffa), Джо Пеши (Russell Bufalino), Рэй Романо (Bill Bufalino), Бобби Каннавале (Felix «Skinny Razor» DiTullio), Анна Пэкуин (Peggy Sheeran), Стивен Грэм (Anthony Provenzano), Стефани Курцуба (Irene Sheeran), Джесси Племонс (Chuckie O'Brien), Кэтрин Нардуччи (Carrie Bufalino), Харви Кейтель (Angelo Bruno), Джек Хьюстон (Robert F. Kennedy)
Описание:
В доме престарелых сильно пожилой мужчина по имени Фрэнк Ширан вспоминает свою жизнь. В 1950-е он работал простым водителем грузовика, совсем не хотел быть гангстером и думал, что маляры - это те, кто красит дома, когда случайно познакомился с криминальным авторитетом Расселом Буфалино. Тот взял парня под своё крыло, начал давать ему небольшие поручения, и вот уже Фрэнк по прозвищу Ирландец сам работает «маляром», мафиозным киллером. Вскоре Рассел сводит его с известным профсоюзным лидером Джимми Хоффой.
Рейтинг:

MPAA: R - Лицам до 17 лет обязательно присутствие взрослого
Качество: UHD WEB-DL 2160p
Формат: MKV
Видео: HEVC, 3840x2080 at 24.000 fps, 10-bit HDR, 17300 kbps avg
Аудио #1: RUS 48 kHz, E-AC3, 3/2 (L,C,R,l,r) + LFE ch, 768 kbps avg |Кубик в кубе|
Аудио #2: ENG 48 kHz, E-AC3, 3/2 (L,C,R,l,r) + LFE ch, 768 kbps avg

Релиз: CasStudio
Работа со звуком: messafan
Реклама: Отсутствует
Общее
Уникальный идентификатор : 89247088058642739356659943736133345478 (0x43245D2AC9DA1A45DCBD30D19CE8E0C6)
Полное имя : D:\Новая папкаVid\Новая_Мои раздачи\The.Irishman.2019.2160p.WEBRip.HEVC.HDR.KvK.CasStudio.TK.mkvDolby Vision
Формат : Matroska
Версия формата : Version 4
Размер файла : 27,4 Гбайт
Продолжительность : 3 ч. 28 м.
Общий поток : 18,8 Мбит/сек
Название фильма : The Irishman (2019) - release by messafan for CasStudio.TK
Дата кодирования : UTC 2019-12-29 22:54:52
Программа кодирования : mkvmerge v34.0.0 ('Sight and Seen') 64-bit
Библиотека кодирования : libebml v1.3.7 + libmatroska v1.5.0
FileExtension_Invalid : mkv mk3d mka mks

Видео
Идентификатор : 1
Формат : HEVC
Формат/Информация : High Efficiency Video Coding
Коммерческое название : HDR10
Профиль формата : Main 10@L6@High
Идентификатор кодека : V_MPEGH/ISO/HEVC
Продолжительность : 3 ч. 28 м.
Битрейт : 16,9 Мбит/сек
Ширина : 3840 пикселей
Высота : 2080 пикселей
Соотношение сторон : 1,85:1
Режим частоты кадров : Постоянный
Частота кадров : 24,000 кадра/сек
Цветовое пространство : YUV
Субдискретизация насыщенности : 4:2:0 (Type 2)
Битовая глубина : 10 бит
Бит/(Пиксели*Кадры) : 0.088
Размер потока : 24,6 Гбайт (90%)
Язык : English
Default : Да
Forced : Нет
Цветовой диапазон : Limited
Основные цвета : BT.2020
Характеристики трансфера : PQ
Коэффициенты матрицы : BT.2020 non-constant
MasteringDisplay_ColorPrimaries : Display P3
MasteringDisplay_Luminance : min: 0.0001 cd/m2, max: 1000 cd/m2
MaxCLL : 1014 cd/m2
MaxFALL : 263 cd/m2

Аудио #1
Идентификатор : 2
Формат : E-AC-3
Формат/Информация : Enhanced AC-3
Коммерческое название : Dolby Digital Plus
Идентификатор кодека : A_EAC3
Продолжительность : 3 ч. 28 м.
Вид битрейта : Постоянный
Битрейт : 768 Кбит/сек
Каналы : 6 каналов
Channel layout : L R C LFE Ls Rs
Частота : 48,0 КГц
Частота кадров : 31,250 кадров/сек (1536 SPF)
Метод сжатия : С потерями
Размер потока : 1,12 Гбайт (4%)
Заголовок : KvK DD5.1 @ 768kbps
Язык : Russian
ServiceKind/String : Complete Main
Default : Да
Forced : Нет

Аудио #2
Идентификатор : 3
Формат : E-AC-3 JOC
Формат/Информация : Enhanced AC-3 with Joint Object Coding
Коммерческое название : Dolby Digital Plus with Dolby Atmos
Идентификатор кодека : A_EAC3
Продолжительность : 3 ч. 28 м.
Вид битрейта : Постоянный
Битрейт : 768 Кбит/сек
Каналы : 6 каналов
Channel layout : L R C LFE Ls Rs
Частота : 48,0 КГц
Частота кадров : 31,250 кадров/сек (1536 SPF)
Метод сжатия : С потерями
Размер потока : 1,12 Гбайт (4%)
Заголовок : English DD5.1 @ 768kbps
Язык : English
ServiceKind/String : Complete Main
Default : Нет
Forced : Нет
Complexity index : 16
Number of dynamic objects : 15
Bed channel count : 1 канал
Bed channel configuration : LFE

Текст
Идентификатор : 4
Формат : UTF-8
Идентификатор кодека : S_TEXT/UTF8
Идентификатор кодека/Информация : UTF-8 Plain Text
Заголовок : English
Язык : English
Default : Нет
Forced : Нет



Скачать Ирландец через торрент https://b.radikal.ru/b06/1912/b3/129c13b7a959.png Скачать, смотреть онлайн Ирландец бесплантно в хорошем качестве Описание: В доме престарелых сильно пожилой мужчина по имени Фрэнк Ширан вспоминает свою жизнь. В 1950-е он работал простым водителем ... 8.9 10 7
Торрент: Зарегистрирован [2019-12-30 14:21] · скачан: 106 раз
Статус: √ проверено
Размер: 27.37 GB
Как cкачать? Как скачать Ирландец через торрент | UTorrent

% Раздел Тема Автор DL S | L
Фильмы 2019-2020 [DVDrip, WEB-DLRip, HDrip] (DUB, MVO) [ 2.18 GB ] Ирландец / The Irishman | Пифагор | BDRip Twi7ter Скачать
3 | 0
Фильмы 2019-2020 [DVDrip, WEB-DLRip, HDrip] (DUB, MVO) [ 1.46 GB ] Ирландец / The Irishman | Пифагор | BDRip Twi7ter Скачать
5 | 0
Фильмы 2019-2020 [DVDrip, WEB-DLRip, HDrip] (DUB, MVO) [ 3.4 GB ] Ирландец / The Irishman | Пифагор | DLRip-AVC Enigma2010 Скачать
12 | 0
Фильмы [HD 720p, 1080p] (Хороший звук DUB, MVO) [ 11.78 GB ] Ирландец / The Irishman | Пифагор | 720p bober100 Скачать
1 | 0
Фильмы (Blu-ray, BD-Remux, HDDVD) [ 42.57 GB ] Ирландец / The Irishman | Пифагор | BD Remux 1080p bober100 Скачать
1 | 0
Фильмы [HD 720p, 1080p] (Хороший звук DUB, MVO) [ 31.99 GB ] Ирландец / The Irishman | Пифагор | 1080p bober100 Скачать
1 | 0
Ultra HD (UHD: 2K, 4K, 8K) [ 34.91 GB ] Ирландец / The Irishman | | 1080p killermax2013 Скачать
1 | 0

28-11-2019 20:33  


Отключить вcю реклaмy на сайте, в т.ч. и в плеере онлайн просмотра!

    Дорогой пользователь! Огромная просьба, поблагодарите релизера, оцените раздачу и оставьте свои комментарий, если Вы скачали Ирландец через торрент бесплатно!!
    Комментировать посты могут только пользователи прошедшие не сложную регистрацию
    Показать сообщения:    


    Ирландец через торрент
    Скачать бесплатно Ирландец
    Ирландец скачать торрент
    Ирландец смотреть онлайн
    Cкачать фильм Ирландец бесплатно
    Ирландец скачать торрент в хорошем качестве
    Ирландец смотреть онлайн бесплатно в хорошем качестве
    Вы не можете начинать темы
    Вы не можете отвечать на сообщения
    Вы не можете редактировать свои сообщения
    Вы не можете удалять свои сообщения
    Вы не можете голосовать в опросах
    Вы не можете прикреплять файлы к сообщениям
    Вы можете скачивать файлы
    Ирландец / The Irishman [2019, драма, криминал, биография, UHD WEB-DL 2160p] DVO [Кубик в кубе] смотреть онлайн, скачать торрент picoco.icu