Доктор Стрэндж

Лицензия

Добыча

Дубляж

Уэнсдэй

1 сезон

Тор

Дубляж

В эфире

Дубляж

Там, где раки поют

MVO

Властелин колец

1 сезон

Deluxe

pack

Рекомендуем

30

Пиратка

ВАЖНО

ВАЖНО

Ghostwire

Пиратка

jed

RePack

nioh2

RePack

RDR2

RePack

NEED FOR SPEED™ PAYBACK

RePack

скачать торрент

Кинопоиск HD

Острые козырьки 6 сезон

6 сезон

FAR CRY 6

RePack

скачать торрент

Лицензия

скачать торрент

MVO

1

1 сезон

скачать торрент

1 сезон

скачать торрент

Лицензия

  

Дождливый день в Нью-Йорке / A Rainy Day in New York (Вуди Аллен) [2019, мелодрама, комедия, BDRip-AVC] Дубляж [iTunes] - ExKinoRay

Дождливый день в Нью-Йорке через торрент piratbit.org

Раздают: 15 [ 35 KB/s ]
Размер: 2.53 GB | Добавлен: 2 года 11 мес. назад | Торрент скачан:709 раз
Смотреть онлайн | Скачать   

01-01-2020 07:15 Дождливый день в Нью-Йорке Скачать торрент  

Название: Дождливый день в Нью-Йорке
Оригинальное название: A Rainy Day in New York
Год выпуска: 2019
Жанр: Мелодрама, комедия
Режиссер: Вуди Аллен
В ролях: Тимоти Шаламе, Элль Фэннинг, Селена Гомес, Джуд Лоу, Диего Луна, Лив Шрайбер, Аннали Эшфорд, Келли Рорбах, Ребекка Холл, Сьюки Уотерхаус

Описание: Он - из состоятельной семьи Нью-Йорка, она - из небольшого городка в Аризоне. Выросший на Манхэттене юноша мечтает показать ей свой любимый город. Судьба дает ему шанс, когда девушку отправляют взять интервью у известного режиссера. Однако этот дождливый день изменит их жизнь навсегда. В проливной суете мегаполиса он встретит свою давнюю подругу, а девушку затянет в мир звездной богемы...

rating

Страна: США
Студия: Gravier Productions, Perdido Productions
Продолжительность: 01:32:23
Перевод: Дублированный | iTunes

Формат: MKV
Качество: BDRip-AVC
Видео: AVC/H.264, 1024x512, ~2706 Кbps, 23.976 fps
Аудио #01: 48 kHz, AC3, 5.1, 384 Kbps | Дублированный | RUS |
Аудио #02: 48 kHz, AC3, 5.1, 384 Kbps | Дублированный | UKR |
Аудио #03: 48 kHz, AC3, 5.1, 448 Kbps | Оригинал | ENG |
Субтитры: Русские, английские
General
Unique ID : 192706034849341422398285600737007067332 (0x90F9D5117C1F5601A833610C031D60C4)
Complete name : F:\A.Rainy.Day.in.New.York.2019.BDRip.AVC.ExKinoRay.mkv
Format : Matroska
Format version : Version 2
File size : 2.53 GiB
Duration : 1 h 32 min
Overall bit rate : 3 924 kb/s
Movie name : A Rainy Day in New York 2019 from ExKinoRay
Encoded date : UTC 2020-01-01 05:17:02
Writing application : mkvmerge v5.6.0 ('Kenya Kane') built on May 27 2012 16:44:04
Writing library : libebml v1.2.3 + libmatroska v1.3.0

Video
ID : 1
Format : AVC
Format/Info : Advanced Video Codec
Format profile : High@L4.1
Format settings, CABAC : Yes
Format settings, ReFrames : 12 frames
Codec ID : V_MPEG4/ISO/AVC
Duration : 1 h 32 min
Bit rate : 2 706 kb/s
Width : 1 024 pixels
Height : 512 pixels
Display aspect ratio : 2.000
Frame rate mode : Constant
Frame rate : 23.976 (23976/1000) FPS
Color space : YUV
Chroma subsampling : 4:2:0
Bit depth : 8 bits
Scan type : Progressive
Bits/(Pixel*Frame) : 0.215
Stream size : 1.70 GiB (67%)
Title : Enigma
Writing library : x264 core 152 r2851 ba24899
Encoding settings : cabac=1 / ref=12 / deblock=1:-2:-2 / analyse=0x3:0x113 / me=umh / subme=10 / psy=1 / psy_rd=0.98:0.05 / mixed_ref=1 / me_range=32 / chroma_me=1 / trellis=2 / 8x8dct=1 / cqm=0 / deadzone=21,11 / fast_pskip=0 / chroma_qp_offset=-3 / threads=12 / lookahead_threads=3 / sliced_threads=0 / nr=0 / decimate=0 / interlaced=0 / bluray_compat=0 / constrained_intra=0 / bframes=10 / b_pyramid=2 / b_adapt=2 / b_bias=0 / direct=3 / weightb=1 / open_gop=0 / weightp=2 / keyint=240 / keyint_min=23 / scenecut=40 / intra_refresh=0 / rc=2pass / mbtree=0 / bitrate=2706 / ratetol=1.0 / qcomp=0.60 / qpmin=0 / qpmax=51 / qpstep=4 / cplxblur=20.0 / qblur=0.5 / ip_ratio=1.40 / pb_ratio=1.30 / aq=1:1.00
Language : English
Default : Yes
Forced : No
Color range : Limited
Color primaries : BT.709
Transfer characteristics : BT.709
Matrix coefficients : BT.709

Audio #1
ID : 2
Format : AC-3
Format/Info : Audio Coding 3
Mode extension : CM (complete main)
Format settings, Endianness : Big
Codec ID : A_AC3
Duration : 1 h 32 min
Bit rate mode : Constant
Bit rate : 384 kb/s
Channel(s) : 6 channels
Channel positions : Front: L C R, Side: L R, LFE
Sampling rate : 48.0 kHz
Frame rate : 31.250 FPS (1536 spf)
Compression mode : Lossy
Stream size : 254 MiB (10%)
Title : iTunes
Language : Russian
Default : Yes
Forced : No

Audio #2
ID : 3
Format : AC-3
Format/Info : Audio Coding 3
Mode extension : CM (complete main)
Format settings, Endianness : Big
Codec ID : A_AC3
Duration : 1 h 32 min
Bit rate mode : Constant
Bit rate : 384 kb/s
Channel(s) : 6 channels
Channel positions : Front: L C R, Side: L R, LFE
Sampling rate : 48.0 kHz
Frame rate : 31.250 FPS (1536 spf)
Compression mode : Lossy
Stream size : 254 MiB (10%)
Language : Ukrainian
Default : No
Forced : No

Audio #3
ID : 4
Format : AC-3
Format/Info : Audio Coding 3
Mode extension : CM (complete main)
Format settings, Endianness : Big
Codec ID : A_AC3
Duration : 1 h 32 min
Bit rate mode : Constant
Bit rate : 448 kb/s
Channel(s) : 6 channels
Channel positions : Front: L C R, Side: L R, LFE
Sampling rate : 48.0 kHz
Frame rate : 31.250 FPS (1536 spf)
Compression mode : Lossy
Stream size : 296 MiB (11%)
Language : English
Default : No
Forced : No

Text #1
ID : 5
Format : UTF-8
Codec ID : S_TEXT/UTF8
Codec ID/Info : UTF-8 Plain Text
Title : Full
Language : Russian
Default : No
Forced : No

Text #2
ID : 6
Format : UTF-8
Codec ID : S_TEXT/UTF8
Codec ID/Info : UTF-8 Plain Text
Language : English
Default : No
Forced : No

Menu
00:00:00.000 : en:Chapter 01
00:04:58.423 : en:Chapter 02
00:07:39.375 : en:Chapter 03
00:12:23.159 : en:Chapter 04
00:16:56.640 : en:Chapter 05
00:21:41.383 : en:Chapter 06
00:27:55.799 : en:Chapter 07
00:32:11.346 : en:Chapter 08
00:37:20.988 : en:Chapter 09
00:42:44.812 : en:Chapter 10
00:45:11.542 : en:Chapter 11
00:49:59.538 : en:Chapter 12
00:54:46.366 : en:Chapter 13
01:00:30.043 : en:Chapter 14
01:04:27.488 : en:Chapter 15
01:09:32.376 : en:Chapter 16
01:12:15.789 : en:Chapter 17
01:16:35.215 : en:Chapter 18
01:21:22.836 : en:Chapter 19
01:27:12.977 : en:Chapter 20


Релиз от: VK релиз-группы

Автор релиза: Enigma



Скачать Дождливый день в Нью-Йорке через торрент https://b.radikal.ru/b06/1912/72/c291035d97ca.png Скачать, смотреть онлайн Дождливый день в Нью-Йорке бесплантно в хорошем качестве Описание: Он - из состоятельной семьи Нью-Йорка, она - из небольшого городка в Аризоне. Выросший на Манхэттене юноша мечтает показать ей ... 7.4 10 7
Info! Золотая раздача, скачанное не засчитывается.
Торрент: Зарегистрирован [2020-01-01 07:15] · скачан: 709 раз
Статус: √ проверено
Размер: 2.53 GB
Как cкачать? Как скачать Дождливый день в Нью-Йорке через торрент | UTorrent

28-11-2019 20:33  


Отключить вcю реклaмy на сайте, в т.ч. и в плеере онлайн просмотра!

    Дорогой пользователь! Огромная просьба, поблагодарите релизера, оцените раздачу и оставьте свои комментарий, если Вы скачали Дождливый день в Нью-Йорке через торрент бесплатно!!
    Комментировать посты могут только пользователи прошедшие не сложную регистрацию
    Показать сообщения:    


    Дождливый день в Нью-Йорке через торрент
    Скачать бесплатно Дождливый день в Нью-Йорке
    Дождливый день в Нью-Йорке скачать торрент
    Дождливый день в Нью-Йорке смотреть онлайн
    Cкачать фильм Дождливый день в Нью-Йорке бесплатно
    Дождливый день в Нью-Йорке скачать торрент в хорошем качестве
    Дождливый день в Нью-Йорке смотреть онлайн бесплатно в хорошем качестве
    Вы не можете начинать темы
    Вы не можете отвечать на сообщения
    Вы не можете редактировать свои сообщения
    Вы не можете удалять свои сообщения
    Вы не можете голосовать в опросах
    Вы не можете прикреплять файлы к сообщениям
    Вы можете скачивать файлы
    Дождливый день в Нью-Йорке / A Rainy Day in New York [2019, мелодрама, комедия, BDRip-AVC] Дубляж [iTunes] - ExKinoRay смотреть онлайн, скачать торрент picoco.icu