2 сезон

iTunes

WEBRip

1

2 сезон

iTunes

1 сезон

1 сезон

RePack

30

Новинка

ВАЖНО

ИГРА 18+

pack

RePack

MK11
pack

Легкие деньги

RePack

jed

RePack

fifa19

RePack

RDR2

RePack

NEED FOR SPEED™ PAYBACK

4 сезон

9 сезон

Бесстыжие 9 сезон

Все сериалы

все сериалы на PB.wtf

RePack

FAR CRY 5

Anonymous, доброй ночи, мы не успеваем собрать деньги на оплату серверов за февраль, помогите нам пожалуйста в это трудное время. В качестве благодарности мы отключим Вам всю рекламу на сайте (укажите свой ник в строку Ваше имя)!

×
  
Magnet ссылка

Аэронавты / The Aeronauts (Том Харпер) [2019, приключения, мелодрама, драма, биография, WEB-DLRip-AVC] [Ukr DUB] piratbit.org

Аэронавты через торрент piratbit.org

Раздают: 1 [ 0 KB/s ]
Размер: 1.64 GB | Добавлен: 1 год 2 мес. назад | Торрент скачан:48 раз
Скачать  

01-01-2020 14:44 Аэронавты Скачать торрент  

Аэронавты / The Aeronauts
Год выпуска: 2019
Страна: США, Великобритания
Жанр: приключения, мелодрама, драма, биография
Продолжительность: 01:40:29
Перевод: Украинский (дублированный)

Субтитры: английские

Режиссер: Том Харпер

В ролях: Фелисити Джонс, Эдди Редмэйн, Химеш Патель, Левин Ллойд, Фиби Фокс, Тим Макиннерни, Энн Рейд, Том Кортни, Ребекка Фронт, Венсан Перес

Описание: Лондон. 1862 год. Она - очаровательная богатая молодая женщина, увлеченная управлением воздушных шаров. Он - исследователь метеоролог, готовый на все, чтобы совершить научный прорыв. Самой судьбой им было предназначено взлететь выше, чем кто-либо в истории. Вдвоем они отправятся в отчаянное путешествие на аэростате, через бури и грозы на край неизведанного мира, где воздух разряжен, а шансы на выживание невелики...

rating скриншот  

Качество: WEB-DLRip-AVC
Формат: MKV
Видео: AVC, 1700 Кбит/с, 962x520
Аудио: AC3, 2 ch, 192 Кбит/с - Ukr
Аудио: AC3, 6 ch, 448 Кбит/с - Eng

General
Unique ID : 243533825793789202196905908966954951098 (0xB736E8A44830E22D4929840BCE00E1BA)
Complete name : E:\INTERNET\The Aeronauts (2019) WEB-DLRip-AVC [UKR_ENG] [Hurtom].mkv
Format : Matroska
Format version : Version 4 / Version 2
File size : 1.64 GiB
Duration : 1h 40mn
Overall bit rate : 2 338 Kbps
Movie name : Аеронавти / The Aeronauts (2019)
Encoded date : UTC 2019-12-31 16:12:50
Writing application : mkvmerge v37.0.0 ('Leave It') 64-bit
Writing library : libebml v1.3.9 + libmatroska v1.5.2
Attachements : cover.jpg

Video
ID : 1
Format : AVC
Format/Info : Advanced Video Codec
Format profile : High@L4.1
Format settings, CABAC : Yes
Format settings, ReFrames : 11 frames
Codec ID : V_MPEG4/ISO/AVC
Duration : 1h 40mn
Bit rate : 1 651 Kbps
Width : 962 pixels
Height : 520 pixels
Display aspect ratio : 1.85:1
Frame rate mode : Constant
Frame rate : 23.976 fps
Color space : YUV
Chroma subsampling : 4:2:0
Bit depth : 8 bits
Scan type : Progressive
Bits/(Pixel*Frame) : 0.138
Stream size : 1.16 GiB (71%)
Writing library : x264 core 158 r2988 7817004
Encoding settings : cabac=1 / ref=11 / deblock=1:-3:-3 / analyse=0x3:0x113 / me=umh / subme=10 / psy=1 / psy_rd=1.00:0.00 / mixed_ref=1 / me_range=32 / chroma_me=1 / trellis=2 / 8x8dct=1 / cqm=0 / deadzone=21,11 / fast_pskip=0 / chroma_qp_offset=-2 / threads=12 / lookahead_threads=3 / sliced_threads=0 / nr=0 / decimate=1 / interlaced=0 / bluray_compat=0 / constrained_intra=0 / bframes=13 / b_pyramid=2 / b_adapt=2 / b_bias=0 / direct=1 / weightb=1 / open_gop=0 / weightp=2 / keyint=240 / keyint_min=23 / scenecut=40 / intra_refresh=0 / rc_lookahead=60 / rc=crf / mbtree=0 / crf=19.2 / qcomp=0.60 / qpmin=0 / qpmax=69 / qpstep=4 / vbv_maxrate=50000 / vbv_bufsize=62500 / crf_max=0.0 / nal_hrd=none / filler=0 / ip_ratio=1.40 / pb_ratio=1.30 / aq=1:1.00
Language : English
Default : Yes
Forced : No

Audio #1
ID : 2
Format : AC-3
Format/Info : Audio Coding 3
Mode extension : CM (complete main)
Format settings, Endianness : Big
Codec ID : A_AC3
Duration : 1h 40mn
Bit rate mode : Constant
Bit rate : 192 Kbps
Channel(s) : 2 channels
Channel positions : Front: L R
Sampling rate : 48.0 KHz
Compression mode : Lossy
Stream size : 138 MiB (8%)
Title : Dub [Line], AC3 2.0 192 Kbps
Language : Ukrainian
Default : Yes
Forced : Yes

Audio #2
ID : 3
Format : AC-3
Format/Info : Audio Coding 3
Mode extension : CM (complete main)
Format settings, Endianness : Big
Codec ID : A_AC3
Duration : 1h 40mn
Bit rate mode : Constant
Bit rate : 448 Kbps
Channel(s) : 6 channels
Channel positions : Front: L C R, Side: L R, LFE
Sampling rate : 48.0 KHz
Compression mode : Lossy
Stream size : 322 MiB (19%)
Title : Original, AC3 5.1 448 kbps
Language : English
Default : No
Forced : No

Text #1
ID : 4
Format : UTF-8
Codec ID : S_TEXT/UTF8
Codec ID/Info : UTF-8 Plain Text
Title : Full
Language : English
Default : No
Forced : No

Text #2
ID : 5
Format : UTF-8
Codec ID : S_TEXT/UTF8
Codec ID/Info : UTF-8 Plain Text
Title : SDH
Language : English
Default : No
Forced : No

Menu
00:00:00.000 : en:Studio Logo
00:00:39.000 : en:Acknowledgement
00:00:44.000 : en:Doubt is there to be listened to
00:03:39.000 : en:Title Sequence
00:03:46.000 : en:Preparing for flight
00:09:54.000 : en:Flying over London
00:14:13.000 : en:James wants to makes a scientific impact
00:18:37.000 : en:The safest way is up
00:27:27.000 : en:The silence of the upper atmosphere
00:32:23.000 : en:A proposal to rewrite the rules of the air
00:40:14.000 : en:Opening up about Pierre
00:45:15.000 : en:The truth about fear and loss
00:52:51.000 : en:Risking everything to break records
00:59:09.000 : en:Facing her fear
01:02:04.000 : en:The truth about Pierre
01:07:17.000 : en:The dangers of thin air
01:15:26.000 : en:Waiting for the descent
01:23:13.000 : en:Bringing the stars closer
01:26:04.000 : en:Quick thinking to save lives
01:31:32.000 : en:All in the name of discovery
01:36:28.000 : en:End Credits
скриншот  скриншот  скриншот  
piratbit.org



Скачать Аэронавты через торрент https://d.radikal.ru/d14/1911/33/14d1162d65c8.jpg Скачать фильм Аэронавты через торрент бесплантно в хорошем качестве Описание: Лондон. 1862 год. Она - очаровательная богатая молодая женщина, увлеченная управлением воздушных шаров. Он - исследователь ... 10 10 5
Торрент: Зарегистрирован [2020-01-01 14:44] · скачан: 48 раз
Статус: T временная
Размер: 1.64 GB
Как cкачать? Как скачать Аэронавты через торрент | UTorrent

% Раздел Тема Автор DL S | L
Фильмы с авторской озвучкой [ 2.18 GB ] Аэронавты / The Aeronauts [2019 биография WEB-DLRip] [AVO] killermax2013 Скачать
1 | 0
T Фильмы (мультфильмы) cо спонсором показа (Новинки AVI/MKV) [ 4.86 GB ] Аэронавты / The Aeronauts [2019 биография WEB-DL 1080p] DUB [Line] bober100 Скачать
3 | 0
T Фильмы (мультфильмы) cо спонсором показа (Новинки AVI/MKV) [ 4.21 GB ] Аэронавты / The Aeronauts [2019 биография WEB-DL 720p] DUB [Line] bober100 Скачать
1 | 0
T Фильмы (мультфильмы) cо спонсором показа (Новинки AVI/MKV) [ 1.37 GB ] Аэронавты / The Aeronauts [2019 биография WEB-DLRip] DUB [Line] bober100 Скачать
1 | 0

28-11-2019 20:33  

Отключить всю рекламу на сайте

01-01-2020 17:51 Аэронавты Скачать торрент  

хорошее доброе кино. мне понравилось.piratbit.org



    Дорогой пользователь! Огромная просьба, поблагодарите релизера, оцените раздачу и оставьте свои комментарий, если Вы скачали Аэронавты через торрент бесплатно! Внесите свою лепту в развитие PiratBit!
    Комментировать посты могут только пользователи прошедшие не сложную регистрацию
    Показать сообщения:    

    Аэронавты через торрент
    Скачать бесплатно Аэронавты
    Аэронавты скачать торрент
    Аэронавты смотреть онлайн
    Cкачать фильм Аэронавты бесплатно
    Аэронавты скачать торрент в хорошем качестве
    Аэронавты смотреть онлайн бесплатно в хорошем качестве


    Вы не можете начинать темы
    Вы не можете отвечать на сообщения
    Вы не можете редактировать свои сообщения
    Вы не можете удалять свои сообщения
    Вы не можете голосовать в опросах
    Вы не можете прикреплять файлы к сообщениям
    Вы можете скачивать файлы