Доктор Стрэндж

Лицензия

Добыча

Дубляж

Уэнсдэй

1 сезон

Тор

Дубляж

В эфире

Дубляж

Там, где раки поют

MVO

Властелин колец

1 сезон

Deluxe

pack

Рекомендуем

30

Пиратка

ВАЖНО

ВАЖНО

Ghostwire

Пиратка

jed

RePack

nioh2

RePack

RDR2

RePack

NEED FOR SPEED™ PAYBACK

RePack

скачать торрент

Кинопоиск HD

Острые козырьки 6 сезон

6 сезон

FAR CRY 6

RePack

скачать торрент

Лицензия

скачать торрент

MVO

1

1 сезон

скачать торрент

1 сезон

скачать торрент

Лицензия

  

Дождливый день в Нью-Йорке / A Rainy Day in New York (Вуди Аллен) [2019 г., мелодрама, комедия, HDRip, Дубляж "iTunes"]

Дождливый день в Нью-Йорке через торрент piratbit.org

Размер: 706 MB | Добавлен: 2 года 11 мес. назад | Торрент скачан:74 раза
Смотреть онлайн | Скачать   

02-01-2020 17:53 Дождливый день в Нью-Йорке Скачать торрент  

Дождливый день в Нью-Йорке / A Rainy Day in New York
Год выпуска: 2019
Страна: США / Gravier Productions, Perdido Productions
Жанр: мелодрама, комедия
Продолжительность: 01:32:27
Перевод: Дубляж (iTunes)

Режиссер: Вуди Аллен

rating

В ролях: Тимоти Шаламе, Эль Фаннинг, Селена Гомес, Джуд Лоу, Диего Луна, Лив Шрайбер, Сюзанн Смит, Оливия Борхэм-Уинг, Бен Уорхейт, Гриффин Ньюман

Описание: Он - из состоятельной семьи Нью-Йорка, она - из небольшого городка в Аризоне. Выросший на Манхэттене юноша мечтает показать ей свой любимый город. Судьба дает ему шанс, когда девушку отправляют взять интервью у известного режиссера. Однако этот дождливый день изменит их жизнь навсегда. В проливной суете мегаполиса он встретит свою давнюю подругу, а девушку затянет в мир звездной богемы...

Качество: HDRip
Формат: AVI
Видео кодек: DivX
Аудио кодек: MP3
Видео: 672x336 (2.00:1), 23.976 fps, DivX Codec 4.x ~926 kbps avg, 0.17 bit/pixel
Аудио: 48 kHz, MPEG Layer 3, 2 ch, ~128.00 kbps avg
скриншот   скриншот   скриншот   скриншот   скриншот   скриншот   скриншот   скриншот  

Общее
Полное имя : F:\ФИЛЬМЫ\Дождливый день в Нью-Йорке.2019.D.HDRip.avi
Формат : AVI
Формат/Информация : Audio Video Interleave
Размер файла : 706 Мбайт
Продолжительность : 1 ч. 32 м.
Режим общего битрейта : Переменный
Общий поток : 1068 Кбит/сек
Программа кодирования : VirtualDubMod 1.5.10.3 | www.virtualdub-fr.org || (build 2550/release)
Библиотека кодирования : VirtualDubMod build 2550/release

Видео
Идентификатор : 0
Формат : MPEG-4 Visual
Профиль формата : Advanced Simple@L5
Настройки формата : BVOP3 / GMC3 / QPel
Параметр BVOP формата : 3
Параметр QPel формата : Да
Параметр GMC формата : 3 точки перехода
Параметр матрицы формата : Default (MPEG)
Идентификатор кодека : DIVX
Идентификатор кодека/Информация : Project Mayo
Идентификатор кодека/Подсказка : DivX 4
Продолжительность : 1 ч. 32 м.
Битрейт : 927 Кбит/сек
Ширина : 672 пикселя
Высота : 336 пикселей
Соотношение сторон : 2,000
Частота кадров : 23,976 (24000/1001) кадра/сек
Цветовое пространство : YUV
Субдискретизация насыщенности : 4:2:0
Битовая глубина : 8 бит
Тип развёртки : Прогрессивная
Метод сжатия : С потерями
Бит/(Пиксели*Кадры) : 0.171
Размер потока : 613 Мбайт (87%)
Библиотека кодирования : XviD 1.2.1 (UTC 2008-12-04)

Аудио
Идентификатор : 1
Формат : MPEG Audio
Версия формата : Version 1
Профиль формата : Layer 3
Настройки формата : Joint stereo
Идентификатор кодека : 55
Идентификатор кодека/Подсказка : MP3
Продолжительность : 1 ч. 32 м.
Вид битрейта : Переменный
Битрейт : 128 Кбит/сек
Каналы : 2 канала
Частота : 48,0 КГц
Метод сжатия : С потерями
Размер потока : 84,7 Мбайт (12%)
Выравнивание : Соединение по промежуткам
Продолжительность промежутка : 24 мс. (0,58 видеокадр)
Время предзагрузки промежутка : 486 мс.
Библиотека кодирования : LAME3.99r
Настройки программы : -m j -V 4 -q 2 -lowpass 17 -b 128




Скачать Дождливый день в Нью-Йорке через торрент https://pic1.kartinco.top/images/12/hdnn4.jpg Скачать, смотреть онлайн Дождливый день в Нью-Йорке бесплантно в хорошем качестве Описание: Он - из состоятельной семьи Нью-Йорка, она - из небольшого городка в Аризоне. Выросший на Манхэттене юноша мечтает показать ей ... 10 10 2
Торрент: Зарегистрирован [2020-01-02 17:53] · скачан: 74 раз
Статус: √ проверено
Размер: 706 MB
Как cкачать? Как скачать Дождливый день в Нью-Йорке через торрент | UTorrent

% Раздел Тема Автор DL S | L
Фильмы [HD 720p, 1080p] (Хороший звук DUB, MVO) [ 13.21 GB ] Дождливый день в Нью-Йорке / A Rainy Day in New York | iTunes | 1080p bober100 Скачать
2 | 0
Фильмы (Blu-ray, BD-Remux, HDDVD) [ 19.56 GB ] Дождливый день в Нью-Йорке / A Rainy Day in New York | iTunes | BD Remux 1080p bober100 Скачать
1 | 0
Фильмы 2019-2020 [DVDrip, WEB-DLRip, HDrip] (DUB, MVO) [ 2.53 GB ] Дождливый день в Нью-Йорке / A Rainy Day in New York | iTunes | BDRip-AVC Enigma2010 Скачать
15 | 0
Фильмы [HD 720p, 1080p] (Хороший звук DUB, MVO) [ 6.1 GB ] Дождливый день в Нью-Йорке / A Rainy Day in New York | iTunes | 720p bober100 Скачать
2 | 0
Фильмы 2019-2020 [DVDrip, WEB-DLRip, HDrip] (DUB, MVO) [ 1.42 GB ] Дождливый день в Нью-Йорке / A Rainy Day in New York | iTunes | BDRip bober100 Скачать
1 | 0

28-11-2019 20:33  


Отключить вcю реклaмy на сайте, в т.ч. и в плеере онлайн просмотра!

    Дорогой пользователь! Огромная просьба, поблагодарите релизера, оцените раздачу и оставьте свои комментарий, если Вы скачали Дождливый день в Нью-Йорке через торрент бесплатно!!
    Комментировать посты могут только пользователи прошедшие не сложную регистрацию
    Показать сообщения:    


    Дождливый день в Нью-Йорке через торрент
    Скачать бесплатно Дождливый день в Нью-Йорке
    Дождливый день в Нью-Йорке скачать торрент
    Дождливый день в Нью-Йорке смотреть онлайн
    Cкачать фильм Дождливый день в Нью-Йорке бесплатно
    Дождливый день в Нью-Йорке скачать торрент в хорошем качестве
    Дождливый день в Нью-Йорке смотреть онлайн бесплатно в хорошем качестве
    Вы не можете начинать темы
    Вы не можете отвечать на сообщения
    Вы не можете редактировать свои сообщения
    Вы не можете удалять свои сообщения
    Вы не можете голосовать в опросах
    Вы не можете прикреплять файлы к сообщениям
    Вы можете скачивать файлы
    Дождливый день в Нью-Йорке / A Rainy Day in New York [2019 г., мелодрама, комедия, HDRip, Дубляж "iTunes"] смотреть онлайн, скачать торрент picoco.icu