Достать ножи: Стеклянная луковица

MVO

Добыча

Дубляж

Уэнсдэй

1 сезон

Тор

Дубляж

13 клиническая

1 сезон

Жестокая ночь

MVO

Одни из нас

1 сезон

Deluxe

pack

Рекомендуем

30

Пиратка

ВАЖНО

ВАЖНО

Ghostwire

Пиратка

jed

RePack

nioh2

RePack

RDR2

RePack

NEED FOR SPEED™ PAYBACK

RePack

скачать торрент

Кинопоиск HD

Острые козырьки 6 сезон

6 сезон

FAR CRY 6

RePack

скачать торрент

Лицензия

скачать торрент

MVO

1

1 сезон

скачать торрент

1 сезон

скачать торрент

Лицензия

  

Малефисента: Владычица тьмы / Maleficent: Mistress of Evil (Хоаким Роннинг) [2019, Фэнтези, приключения, семейный, UHD BDRip 2160p] Дубляж [iTunes]

Малефисента: Владычица тьмы через торрент piratbit.org

Размер: 14.82 GB | Добавлен: 3 года 1 мес. назад | Торрент скачан:333 раза
Смотреть онлайн | Скачать | Поддержите нас   

03-01-2020 18:53 Малефисента: Владычица тьмы Скачать торрент  

Малефисента: Владычица тьмы / Maleficent: Mistress of Evil
Год выпуска: 2019
Страна: США, Великобритания
Студия: Roth Films, Walt Disney Pictures
Жанр: Фэнтези, приключения, семейный
Продолжительность: 01:58:50
Перевод: Дублированный | iTunes
Субтитры: Русские (Full, SDH), английские

Режиссер: Хоаким Роннинг

rating

В ролях: Анджелина Джоли, Эль Фаннинг, Харрис Дикинсон, Мишель Пфайффер, Сэм Райли, Чиветель Эджиофор, Эд Скрейн, Роберт Линдсей, Дэвид Гяси, Дженн Мюррэй

Описание: Действие происходит через несколько лет после того, как Малефисента наложила злые чары на принцессу Аврору. Фильм рассказывает про сложную взаимосвязь между тёмной феей и будущей королевой, о новых союзниках и противниках в деле защиты волшебного леса и магических существах, которые в нем обитают.

Качество: UHD BDRip 2160p
Формат: MKV

Видео: HEVC HDR, 11.6 Mбит/с, 3840x1610, 23.976 кадр/с, 10 Бит
Аудио #01: 48 kHz, AC3, 5.1, 384 Kbps | iTunes | RUS |
Аудио #02: 48 kHz, Dolby TrueHD, 7.1, 5128 Kbps | Оригинал | ENG |
Аудио #03: 48 kHz, AC3, 5.1, 640 Kbps | Оригинал | ENG |
скриншот  скриншот  скриншот  

скриншот  скриншот  скриншот  

Общее
Уникальный идентификатор : 204888263413069378679874956001388144236 (0x9A240B4F1F84D13FBA26B9EB1852266C)
Полное имя : G:\Maleficent.Mistress.of.Evil.2019.2160p.UHD.BDRip.HDR.x265.10-bit.Master5.mkv
Формат : Matroska
Версия формата : Version 4
Размер файла : 14,8 Гбайт
Продолжительность : 1 ч. 58 м.
Режим общего битрейта : Переменный
Общий поток : 17,9 Мбит/сек
Название фильма : Maleficent.Mistress.of.Evil.2019.2160p.UHD.BDRip.HDR.x265.10-bit.Master5
Дата кодирования : UTC 2020-01-03 17:32:59
Программа кодирования : mkvmerge v7.9.0 ('Birds') 64bit
Библиотека кодирования : libebml v1.3.1 + libmatroska v1.4.2

Видео
Идентификатор : 1
Формат : HEVC
Формат/Информация : High Efficiency Video Coding
Коммерческое название : HDR10
Профиль формата : Main 10@L5.1@High
Идентификатор кодека : V_MPEGH/ISO/HEVC
Продолжительность : 1 ч. 58 м.
Битрейт : 11,6 Мбит/сек
Ширина : 3840 пикселей
Высота : 1610 пикселей
Соотношение сторон : 2,40:1
Режим частоты кадров : Постоянный
Частота кадров : 23,976 (24000/1001) кадра/сек
Цветовое пространство : YUV
Субдискретизация насыщенности : 4:2:0 (Type 2)
Битовая глубина : 10 бит
Бит/(Пиксели*Кадры) : 0.078
Размер потока : 9,65 Гбайт (65%)
Заголовок : Maleficent.Mistress.of.Evil.2019.2160p.UHD.BDRip.HDR.x265.10-bit.Master5
Библиотека кодирования : x265 3.2+15-04db2bfee5d6:[Windows][GCC 9.2.1][64 bit] 10bit
Настройки программы : cpuid=1176575 / frame-threads=5 / numa-pools=36 / wpp / no-pmode / no-pme / no-psnr / no-ssim / log-level=2 / input-csp=1 / input-res=3840x1610 / interlace=0 / total-frames=170977 / level-idc=51 / high-tier=1 / uhd-bd=0 / ref=4 / no-allow-non-conformance / repeat-headers / annexb / aud / hrd / info / hash=0 / no-temporal-layers / no-open-gop / min-keyint=1 / keyint=24 / gop-lookahead=0 / bframes=4 / b-adapt=2 / b-pyramid / bframe-bias=0 / rc-lookahead=25 / lookahead-slices=4 / scenecut=40 / radl=0 / no-splice / no-intra-refresh / ctu=64 / min-cu-size=8 / rect / no-amp / max-tu-size=32 / tu-inter-depth=1 / tu-intra-depth=1 / limit-tu=0 / rdoq-level=2 / dynamic-rd=0.00 / no-ssim-rd / signhide / no-tskip / nr-intra=0 / nr-inter=0 / no-constrained-intra / no-strong-intra-smoothing / max-merge=3 / limit-refs=3 / limit-modes / me=3 / subme=3 / merange=57 / temporal-mvp / no-frame-dup / no-hme / weightp / no-weightb / no-analyze-src-pics / deblock=-3:-3 / no-sao / no-sao-non-deblock / rd=4 / selective-sao=0 / no-early-skip / rskip / no-fast-intra / no-tskip-fast / no-cu-lossless / no-b-intra / no-splitrd-skip / rdpenalty=0 / psy-rd=2.00 / psy-rdoq=1.00 / no-rd-refine / no-lossless / cbqpoffs=0 / crqpoffs=0 / rc=crf / crf=17.0 / qcomp=0.60 / qpstep=4 / stats-write=0 / stats-read=0 / vbv-maxrate=160000 / vbv-bufsize=160000 / vbv-init=0.9 / crf-max=0.0 / crf-min=0.0 / ipratio=1.40 / pbratio=1.30 / aq-mode=1 / aq-strength=1.00 / cutree / zone-count=0 / no-strict-cbr / qg-size=32 / no-rc-grain / qpmax=69 / qpmin=0 / no-const-vbv / sar=1 / overscan=0 / videoformat=5 / range=0 / colorprim=9 / transfer=16 / colormatrix=9 / chromaloc=1 / chromaloc-top=2 / chromaloc-bottom=2 / display-window=0 / master-display=G(13250,34500)B(7500,3000)R(34000,16000)WP(15635,16450)L(10000000,1) / cll=0,0 / min-luma=0 / max-luma=1023 / log2-max-poc-lsb=8 / vui-timing-info / vui-hrd-info / slices=1 / no-opt-qp-pps / no-opt-ref-list-length-pps / no-multi-pass-opt-rps / scenecut-bias=0.05 / no-opt-cu-delta-qp / no-aq-motion / hdr / hdr-opt / no-dhdr10-opt / no-idr-recovery-sei / analysis-reuse-level=5 / scale-factor=0 / refine-intra=0 / refine-inter=0 / refine-mv=1 / refine-ctu-distortion=0 / no-limit-sao / ctu-info=0 / no-lowpass-dct / refine-analysis-type=0 / copy-pic=1 / max-ausize-factor=1.0 / no-dynamic-refine / no-single-sei / no-hevc-aq / no-svt / no-field / qp-adaptation-range=1.00 / no-scenecut-aware-qp
Default : Да
Forced : Нет
Цветовой диапазон : Limited
Основные цвета : BT.2020
Характеристики трансфера : PQ
Коэффициенты матрицы : BT.2020 non-constant
MasteringDisplay_ColorPrimaries : Display P3
MasteringDisplay_Luminance : min: 0.0001 cd/m2, max: 1000 cd/m2

Аудио #1
Идентификатор : 2
Формат : AC-3
Формат/Информация : Audio Coding 3
Коммерческое название : Dolby Digital
Идентификатор кодека : A_AC3
Продолжительность : 1 ч. 58 м.
Вид битрейта : Постоянный
Битрейт : 384 Кбит/сек
Каналы : 6 каналов
Channel layout : L R C LFE Ls Rs
Частота : 48,0 КГц
Частота кадров : 31,250 кадров/сек (1536 SPF)
Битовая глубина : 16 бит
Метод сжатия : С потерями
Размер потока : 326 Мбайт (2%)
Заголовок : Дублированный (iTunes)
Язык : Russian
ServiceKind/String : Complete Main
Default : Да
Forced : Нет

Аудио #2
Идентификатор : 3
Формат : MLP FBA 16-ch
Формат/Информация : Meridian Lossless Packing FBA with 16-channel presentation
Коммерческое название : Dolby TrueHD with Dolby Atmos
Идентификатор кодека : A_TRUEHD
Продолжительность : 1 ч. 58 м.
Вид битрейта : Переменный
Битрейт : 5128 Кбит/сек
Максимальный битрейт : 8160 Кбит/сек
Каналы : 8 каналов
Channel layout : L R C LFE Ls Rs Lb Rb
Частота : 48,0 КГц
Частота кадров : 1200,000 кадров/сек (40 SPF)
Метод сжатия : Без потерь
Размер потока : 4,26 Гбайт (29%)
Язык : English
Default : Нет
Forced : Нет
Number of dynamic objects : 13
Bed channel count : 1 канал
Bed channel configuration : LFE

Аудио #3
Идентификатор : 4
Формат : AC-3
Формат/Информация : Audio Coding 3
Коммерческое название : Dolby Digital
Идентификатор кодека : A_AC3
Продолжительность : 1 ч. 58 м.
Вид битрейта : Постоянный
Битрейт : 640 Кбит/сек
Каналы : 6 каналов
Channel layout : L R C LFE Ls Rs
Частота : 48,0 КГц
Частота кадров : 31,250 кадров/сек (1536 SPF)
Битовая глубина : 16 бит
Метод сжатия : С потерями
Размер потока : 544 Мбайт (4%)
Язык : English
ServiceKind/String : Complete Main
Default : Нет
Forced : Нет

Текст #1
Идентификатор : 5
Формат : UTF-8
Идентификатор кодека : S_TEXT/UTF8
Идентификатор кодека/Информация : UTF-8 Plain Text
Продолжительность : 1 ч. 57 м.
Битрейт : 47 бит/сек
ElementCount : 1011
Размер потока : 40,7 Кбайт (0%)
Заголовок : Full
Язык : Russian
Default : Нет
Forced : Да

Текст #2
Идентификатор : 6
Формат : UTF-8
Идентификатор кодека : S_TEXT/UTF8
Идентификатор кодека/Информация : UTF-8 Plain Text
Продолжительность : 1 ч. 50 м.
Битрейт : 69 бит/сек
ElementCount : 1560
Размер потока : 56,3 Кбайт (0%)
Заголовок : SDH
Язык : Russian
Default : Нет
Forced : Нет

Текст #3
Идентификатор : 7
Формат : PGS
Режим смешивания : zlib
Идентификатор кодека : S_HDMV/PGS
Идентификатор кодека/Информация : Picture based subtitle format used on BDs/HD-DVDs
Продолжительность : 1 ч. 53 м.
Битрейт : 10,8 Кбит/сек
ElementCount : 3210
Размер потока : 8,71 Мбайт (0%)
Заголовок : English SDH
Язык : English
Default : Нет
Forced : Нет

Меню
00:00:00.000 : en:Chapter 01
00:06:47.907 : en:Chapter 02
00:09:11.676 : en:Chapter 03
00:14:45.551 : en:Chapter 04
00:19:27.833 : en:Chapter 05
00:23:10.556 : en:Chapter 06
00:33:51.905 : en:Chapter 07
00:39:10.265 : en:Chapter 08
00:42:19.579 : en:Chapter 09
00:48:31.992 : en:Chapter 10
00:52:44.745 : en:Chapter 11
00:57:15.140 : en:Chapter 12
00:59:26.146 : en:Chapter 13
01:05:47.569 : en:Chapter 14
01:09:31.751 : en:Chapter 15
01:19:07.242 : en:Chapter 16
01:22:48.547 : en:Chapter 17
01:29:09.219 : en:Chapter 18
01:35:00.653 : en:Chapter 19
01:44:26.510 : en:Chapter 20
01:51:06.994 : en:Chapter 21




Скачать Малефисента: Владычица тьмы через торрент http://b.radikal.ru/b39/2001/b3/37dad10f8df8.jpg Скачать, смотреть онлайн Малефисента: Владычица тьмы бесплантно в хорошем качестве Описание: Действие происходит через несколько лет после того, как Малефисента наложила злые чары на принцессу Аврору. Фильм рассказывает ... 10 10 11
Торрент: Зарегистрирован [2020-01-03 18:53] · скачан: 333 раз
Статус: √ проверено
Размер: 14.82 GB
Как cкачать? Как скачать Малефисента: Владычица тьмы через торрент | UTorrent

% Раздел Тема Автор DL S | L
3D Фильмы [ 6.92 GB ] Малефисента: Владычица тьмы 3D / Maleficent: Mistress of Evil 3D | iTunes | 1080p, Дубляж iTunes slaventi-69 Скачать
1 | 2
3D Фильмы [ 15.34 GB ] Малефисента: Владычица тьмы в 3Д / Maleficent: Mistress of Evil 3D | iTunes | 1080p serega768 Скачать
2 | 0
3D Фильмы [ 10.14 GB ] Малефисента: Владычица тьмы 3Д / Maleficent: Mistress of Evil 3D | iTunes | 1080p, (Half OverUnder bober100 Скачать
1 | 0
Фильмы (Blu-ray, BD-Remux, HDDVD) [ 42.13 GB ] Малефисента: Владычица тьмы / Maleficent: Mistress of Evil | iTunes | BD Remux 1080p, (2D/3D bober100 Скачать
1 | 0
Фильмы 2019-2020 [DVDrip, WEB-DLRip, HDrip] (DUB, MVO) [ 2.35 GB ] Малефисента: Владычица тьмы / Maleficent: Mistress of Evil | iTunes | DLRip-AVC Enigma2010 Скачать
2 | 0
Фильмы [HD 720p, 1080p] (Хороший звук DUB, MVO) [ 11.44 GB ] Малефисента: Владычица тьмы / Maleficent: Mistress of Evil | iTunes | 1080p bober100 Скачать
4 | 0
Ultra HD (UHD: 2K, 4K, 8K) [ 26.44 GB ] Малефисента: Владычица тьмы / Maleficent: Mistress of Evil | iTunes | 2160p bober100 Скачать
2 | 0

28-11-2019 20:33  


Отключить вcю реклaмy на сайте, в т.ч. и в плеере онлайн просмотра!

    Дорогой пользователь! Огромная просьба, поблагодарите релизера, оцените раздачу и оставьте свои комментарий, если Вы скачали Малефисента: Владычица тьмы через торрент бесплатно!!
    Комментировать посты могут только пользователи прошедшие не сложную регистрацию
    Показать сообщения:    


    Малефисента: Владычица тьмы через торрент
    Скачать бесплатно Малефисента: Владычица тьмы
    Малефисента: Владычица тьмы скачать торрент
    Малефисента: Владычица тьмы смотреть онлайн
    Cкачать фильм Малефисента: Владычица тьмы бесплатно
    Малефисента: Владычица тьмы скачать торрент в хорошем качестве
    Малефисента: Владычица тьмы смотреть онлайн бесплатно в хорошем качестве
    Вы не можете начинать темы
    Вы не можете отвечать на сообщения
    Вы не можете редактировать свои сообщения
    Вы не можете удалять свои сообщения
    Вы не можете голосовать в опросах
    Вы не можете прикреплять файлы к сообщениям
    Вы можете скачивать файлы
    Малефисента: Владычица тьмы / Maleficent: Mistress of Evil [2019, Фэнтези, приключения, семейный, UHD BDRip 2160p] Дубляж [iTunes] смотреть онлайн, скачать торрент picoco.icu