Всегда рабочее зеркало без VPN и Proxy просто перед .vidak.icu напиши любое слово или цифру, Пример http://mfh.vidak.icu

>

7.4

iTunes

7.4

2 сезон

6.6

iTunes

1

6.9

1 сезон

7.2

iTunes

6.0

MVO

13

6.1

iTunes

8.3

Пиратка

30

ULTIMATE

pack

9.9

Лицензия

ВАЖНО

ИГРА 18+

pack

7.3

RePack

MK11

7.7

RePack

jed

7.8

RePack

fifa19

8.5

RePack

RDR2

RePack

NEED FOR SPEED™ PAYBACK

1 сезон

9 сезон

Бесстыжие 9 сезон

Все сериалы

все сериалы на PB.wtf

RePack

FAR CRY 5

Anonymous, добрый вечер, мы катастрофически не успеваем собрать деньги на оплату серверов, помогите нам пожалуйста 5,10,15р., для нас важна любая помощь . В качестве благодарности мы отключим Вам всю рекламу на сайте (укажите свой ник в строку Ваше имя)!

×
  
Magnet ссылка

Ведьмак: Коллекция / The Witcher: Collection [2019-2021, Фэнтези, боевик, драма, приключения, ужасы, WEBRip HEVC 1080p 10 bit 60 FPS, MVO, DVO, DUB] piratbit.org

Ведьмак: Коллекция через торрент piratbit.org

Раздают: 2 [ 0 KB/s ] Качают: 2 [ 0 KB/s ]
Размер: 40.37 GB | Добавлен: 24 д. назад | Торрент скачан:2 раза
Смотреть онлайн Ведьмак: Коллекция | Скачать    Ребята, помогите собрать деньги на оплату серверов!!!

05-01-2020 13:14 Ведьмак: Коллекция Скачать торрент  



«Ведьмак» (англ. The Witcher) — американо-польский фэнтезийный телесериал, снятый по мотивам одноименной серии романов Анджея Сапковского. Премьера первого сезона состоялась на стриминг-сервисе Netflix 20 декабря 2019 года, премьера второго сезона — 17 декабря 2021 года. В сентябре 2021 года был анонсирован третий сезон. В 2022 году на экраны выйдет приквел шоу — сериал «Ведьмак: Происхождение».

The Witcher
««The worst monsters are the ones we create»»

Год выпуска: 2019-2021
Страна: Польша, США
Жанр: Фэнтези, боевик, драма, приключения, ужасы

Продолжительность: ~01:00:00 серия
Перевод: Профессиональный многоголосый закадровый | LostFilm
Перевод: Профессиональный многоголосый закадровый | NewStudio
Перевод: Любительский двухголосый закадровый | Кубик в Кубе
Субтитры: русские |.

Режиссер: Алик Сахаров, Шарлотта Брандстром, Алекс Гарсиа Лопес
В ролях: Генри Кавилл, Фрейя Аллан, Джои Бэти, МайАнна Бёринг, Том Кэнтон, Аня Чалотра, Имон Фэррен, Бьерн Хлинур Харальдссон, Адам Леви, Джоди Мэй
Описание:
Ведьмак Геральт, мутант и убийца чудовищ, на своей верной лошади по кличке Плотва путешествует по Континенту. За тугой мешочек чеканных монет этот мужчина избавит вас от всякой настырной нечисти - хоть от чудищ болотных, оборотней и даже заколдованных принцесс. В сельской глуши местную девушку Йеннифэр, которой сильно не повезло с внешностью, зато посчастливилось иметь способности к магии, отец продаёт колдунье в ученицы. А малолетняя наследница королевства Цинтра по имени Цири вынуждена пуститься в бега, когда их страну захватывает империя Нильфгаард. Судьбы этих троих окажутся тесно связаны, но скоро сказка сказывается, да не скоро дело делается.
Мировая премьера: 20 декабря 2019


Качество: WEBRip 1080p Rip by DD2D3
Формат: MKV
Видео: V_MPEGH/ISO/HEVC; 1920x960 (2.000); 3880 Kbps; 60 fps; 0,035 bpp
Аудио: русский; AC3; 640 Kbps; CBR; 6 ch ||
Аудио: русский; AC3; 640 Kbps; CBR; 6 ch ||
Аудио: русский; AC3; 640 Kbps; CBR; 6 ch ||
Навигация по главам: нет



Общее
Уникальный идентификатор : 241683086489302038512884451633306441428 (0xB5D2782627273A1FBE34A9DB79FE96D4)
Полное имя : D:\The Witcher (tv series 2019 ...) WEB-DLRip - HEVC 1080p 10 bit 60 FPS\Season 1\Season 1. Series 1 - 8 of 8.mkv
Формат : Matroska
Версия формата : Version 2
Размер файла : 2,53 Гбайт
Продолжительность : 1 ч. 1 м.
Общий поток : 5 919 Кбит/сек
Название фильма : Rip by DD2D3
Дата кодирования : UTC 2021-12-19 07:24:37
Программа кодирования : mkvmerge v7.8.0 ('River Man') 32bit built on Apr 3 2015 12:11:22
Библиотека кодирования : libebml v1.3.1 + libmatroska v1.4.2
Attachments : poster

Видео
Идентификатор : 1
Формат : HEVC
Формат/Информация : High Efficiency Video Coding
Профиль формата : Main 10@L4.1@Main
Идентификатор кодека : V_MPEGH/ISO/HEVC
Продолжительность : 1 ч. 1 м.
Битрейт : 3 881 Кбит/сек
Ширина : 1 920 пикселей
Высота : 960 пикселей
Соотношение сторон : 2,000
Режим частоты кадров : Постоянный
Частота кадров : 60,000 кадров/сек
Цветовое пространство : YUV
Субдискретизация насыщенности : 4:2:0
Битовая глубина : 10 бит
Бит/(Пиксели*Кадры) : 0.035
Размер потока : 1,66 Гбайт (66%)
Библиотека кодирования : x265 2.3+33-0b7d54dbb71a87a0:[Windows][MSVC 1800][64 bit] 10bit: KG7x [x265.ru]
Настройки программы : cpuid=1173503 / frame-threads=2 / numa-pools=4 / wpp / no-pmode / no-pme / no-psnr / no-ssim / log-level=2 / input-csp=1 / input-res=1920x960 / interlace=0 / total-frames=219871 / level-idc=41 / high-tier=1 / uhd-bd=0 / ref=3 / no-allow-non-conformance / no-repeat-headers / annexb / no-aud / no-hrd / info / hash=0 / no-temporal-layers / open-gop / min-keyint=25 / keyint=250 / bframes=4 / b-adapt=2 / b-pyramid / bframe-bias=0 / rc-lookahead=20 / lookahead-slices=6 / scenecut=40 / no-intra-refresh / ctu=64 / min-cu-size=8 / no-rect / no-amp / max-tu-size=32 / tu-inter-depth=1 / tu-intra-depth=1 / limit-tu=0 / rdoq-level=0 / dynamic-rd=0.00 / no-ssim-rd / signhide / no-tskip / nr-intra=0 / nr-inter=0 / no-constrained-intra / strong-intra-smoothing / max-merge=2 / limit-refs=3 / no-limit-modes / me=1 / subme=2 / merange=57 / temporal-mvp / weightp / no-weightb / no-analyze-src-pics / deblock=0:0 / no-sao / no-sao-non-deblock / rd=3 / no-early-skip / no-rskip / no-fast-intra / no-tskip-fast / no-cu-lossless / no-b-intra / rdpenalty=0 / psy-rd=4.00 / psy-rdoq=0.00 / no-rd-refine / analysis-mode=0 / no-lossless / cbqpoffs=0 / crqpoffs=0 / rc=abr / bitrate=4000 / qcomp=0.60 / qpstep=1 / stats-write=0 / stats-read=2 / cplxblur=20.0 / qblur=0.5 / ipratio=1.10 / pbratio=1.00 / aq-mode=0 / aq-strength=0.00 / no-cutree / zone-count=0 / no-strict-cbr / qg-size=64 / rc-grain / qpmax=69 / qpmin=0 / sar=1 / overscan=0 / videoformat=5 / range=0 / colorprim=2 / transfer=2 / colormatrix=2 / chromaloc=0 / display-window=0 / max-cll=0,0 / min-luma=0 / max-luma=1023 / log2-max-poc-lsb=8 / vui-timing-info / vui-hrd-info / slices=1 / opt-qp-pps / opt-ref-list-length-pps / no-multi-pass-opt-rps / scenecut-bias=0.05 / no-opt-cu-delta-qp / no-aq-motion / no-hdr / no-hdr-opt / refine-level=5 / no-limit-sao
Default : Да
Forced : Нет
Statistics Tags Issue : mkvmerge v10.0.0 ('To Drown In You') 32bit 2020-06-14 10:00:03 / mkvmerge v7.8.0 ('River Man') 32bit built on Apr 3 2015 12:11:22 2021-12-19 07:24:37
FromStats_BitRate : 4001117
FromStats_Duration : 01:01:04.517000000
FromStats_FrameCount : 219871
FromStats_StreamSize : 1832770409

Аудио #1
Идентификатор : 2
Формат : AC-3
Формат/Информация : Audio Coding 3
Коммерческое название : Dolby Digital
Идентификатор кодека : A_AC3
Продолжительность : 1 ч. 1 м.
Вид битрейта : Постоянный
Битрейт : 640 Кбит/сек
Каналы : 6 каналов
Channel layout : L R C LFE Ls Rs
Частота : 48,0 КГц
Частота кадров : 31,250 кадров/сек (1536 SPF)
Метод сжатия : С потерями
Размер потока : 280 Мбайт (11%)
Заголовок : Lostfilm
Язык : Russian
Service kind : Complete Main
Default : Нет
Forced : Нет

Аудио #2
Идентификатор : 3
Формат : AC-3
Формат/Информация : Audio Coding 3
Коммерческое название : Dolby Digital
Идентификатор кодека : A_AC3
Продолжительность : 1 ч. 1 м.
Вид битрейта : Постоянный
Битрейт : 640 Кбит/сек
Каналы : 6 каналов
Channel layout : L R C LFE Ls Rs
Частота : 48,0 КГц
Частота кадров : 31,250 кадров/сек (1536 SPF)
Метод сжатия : С потерями
Размер потока : 280 Мбайт (11%)
Заголовок : Кубик в Кубе
Язык : Russian
Service kind : Complete Main
Default : Нет
Forced : Нет

Аудио #3
Идентификатор : 4
Формат : AC-3
Формат/Информация : Audio Coding 3
Коммерческое название : Dolby Digital
Идентификатор кодека : A_AC3
Продолжительность : 1 ч. 1 м.
Вид битрейта : Постоянный
Битрейт : 640 Кбит/сек
Каналы : 6 каналов
Channel layout : L R C LFE Ls Rs
Частота : 48,0 КГц
Частота кадров : 31,250 кадров/сек (1536 SPF)
Метод сжатия : С потерями
Размер потока : 280 Мбайт (11%)
Заголовок : Newstudio
Язык : Russian
Service kind : Complete Main
Default : Нет
Forced : Нет

Текст
Идентификатор : 5
Формат : UTF-8
Идентификатор кодека : S_TEXT/UTF8
Идентификатор кодека/Информация : UTF-8 Plain Text
Заголовок : Full
Язык : Russian
Default : Нет
Forced : Нет
Statistics Tags Issue : mkvmerge v10.0.0 ('To Drown In You') 32bit 2020-06-14 10:00:03 / mkvmerge v7.8.0 ('River Man') 32bit built on Apr 3 2015 12:11:22 2021-12-19 07:24:37
FromStats_BitRate : 63
FromStats_Duration : 00:59:54.916000000
FromStats_FrameCount : 624
FromStats_StreamSize : 28661

скриншот  скриншот  скриншот  скриншот  




Качество: WEBRip 1080p Rip by DD2D3
Формат: MKV
Видео: V_MPEGH/ISO/HEVC; 1920x960 (2.000); 4295 Kbps; 60 fps; 0,039 bpp
Аудио: русский; AC3; 384 Kbps; CBR; 2 ch ||
Аудио: русский; AC3; 640 Kbps; CBR; 6 ch ||
Навигация по главам: нет



Общее
Уникальный идентификатор : 243814435705677518899083314062100676937 (0xB76CF3C74EC51CC89ABC08246D3A4149)
Полное имя : D:\The Witcher (tv series 2019 ...) WEB-DLRip - HEVC 1080p 10 bit 60 FPS\Season 2\Season 2. Series 1 - 8 of 8.mkv
Формат : Matroska
Версия формата : Version 2
Размер файла : 2,39 Гбайт
Продолжительность : 1 ч. 3 м.
Общий поток : 5 427 Кбит/сек
Название фильма : Rip by from DD2D3
Дата кодирования : UTC 2021-12-27 18:56:37
Программа кодирования : mkvmerge v7.8.0 ('River Man') 32bit built on Apr 3 2015 12:11:22
Библиотека кодирования : libebml v1.3.1 + libmatroska v1.4.2
Attachments : poster

Видео
Идентификатор : 1
Формат : HEVC
Формат/Информация : High Efficiency Video Coding
Профиль формата : Main 10@L4.1@Main
Идентификатор кодека : V_MPEGH/ISO/HEVC
Продолжительность : 1 ч. 3 м.
Битрейт : 4 295 Кбит/сек
Ширина : 1 920 пикселей
Высота : 960 пикселей
Соотношение сторон : 2,000
Режим частоты кадров : Постоянный
Частота кадров : 60,000 кадров/сек
Цветовое пространство : YUV
Субдискретизация насыщенности : 4:2:0
Битовая глубина : 10 бит
Бит/(Пиксели*Кадры) : 0.039
Размер потока : 1,89 Гбайт (79%)
Библиотека кодирования : x265 3.5+10-82786fccc:[Windows][GCC 11.1.0][64 bit] 10bit
Настройки программы : cpuid=1111039 / frame-threads=2 / numa-pools=4 / wpp / no-pmode / no-pme / no-psnr / no-ssim / log-level=2 / input-csp=1 / input-res=1920x960 / interlace=0 / total-frames=227141 / level-idc=41 / high-tier=1 / uhd-bd=0 / ref=3 / no-allow-non-conformance / no-repeat-headers / annexb / no-aud / no-eob / no-eos / no-hrd / info / hash=0 / no-temporal-layers / open-gop / min-keyint=25 / keyint=250 / gop-lookahead=0 / bframes=4 / b-adapt=2 / b-pyramid / bframe-bias=0 / rc-lookahead=20 / lookahead-slices=6 / scenecut=40 / hist-scenecut=0 / radl=0 / no-splice / no-intra-refresh / ctu=64 / min-cu-size=8 / no-rect / no-amp / max-tu-size=32 / tu-inter-depth=1 / tu-intra-depth=1 / limit-tu=0 / rdoq-level=0 / dynamic-rd=0.00 / no-ssim-rd / signhide / no-tskip / nr-intra=0 / nr-inter=0 / no-constrained-intra / strong-intra-smoothing / max-merge=3 / limit-refs=1 / no-limit-modes / me=2 / subme=5 / merange=57 / temporal-mvp / no-frame-dup / no-hme / weightp / no-weightb / no-analyze-src-pics / deblock=0:0 / sao / no-sao-non-deblock / rd=3 / selective-sao=4 / early-skip / rskip / no-fast-intra / no-tskip-fast / no-cu-lossless / b-intra / no-splitrd-skip / rdpenalty=0 / psy-rd=0.40 / psy-rdoq=0.00 / no-rd-refine / no-lossless / cbqpoffs=0 / crqpoffs=0 / rc=abr / bitrate=4400 / qcomp=0.60 / qpstep=4 / stats-write=0 / stats-read=2 / cplxblur=20.0 / qblur=0.5 / ipratio=1.40 / pbratio=1.30 / aq-mode=2 / aq-strength=1.00 / cutree / zone-count=0 / no-strict-cbr / qg-size=32 / no-rc-grain / qpmax=69 / qpmin=0 / no-const-vbv / sar=1 / overscan=0 / videoformat=5 / range=0 / colorprim=2 / transfer=2 / colormatrix=2 / chromaloc=0 / display-window=0 / cll=0,0 / min-luma=0 / max-luma=1023 / log2-max-poc-lsb=8 / vui-timing-info / vui-hrd-info / slices=1 / no-opt-qp-pps / no-opt-ref-list-length-pps / no-multi-pass-opt-rps / scenecut-bias=0.05 / hist-threshold=0.03 / no-opt-cu-delta-qp / no-aq-motion / no-hdr10 / no-hdr10-opt / no-dhdr10-opt / no-idr-recovery-sei / analysis-reuse-level=0 / analysis-save-reuse-level=0 / analysis-load-reuse-level=0 / scale-factor=0 / refine-intra=0 / refine-inter=0 / refine-mv=1 / refine-ctu-distortion=0 / no-limit-sao / ctu-info=0 / no-lowpass-dct / refine-analysis-type=0 / copy-pic=1 / max-ausize-factor=1.0 / no-dynamic-refine / no-single-sei / no-hevc-aq / no-svt / no-field / qp-adaptation-range=1.00 / scenecut-aware-qp=0conformance-window-offsets / right=0 / bottom=0 / decoder-max-rate=0 / no-vbv-live-multi-pass
Default : Да
Forced : Нет

Аудио #1
Идентификатор : 2
Формат : AC-3
Формат/Информация : Audio Coding 3
Коммерческое название : Dolby Digital
Идентификатор кодека : A_AC3
Продолжительность : 1 ч. 3 м.
Вид битрейта : Постоянный
Битрейт : 384 Кбит/сек
Каналы : 2 канала
Channel layout : L R
Частота : 48,0 КГц
Частота кадров : 31,250 кадров/сек (1536 SPF)
Метод сжатия : С потерями
Задержка видео : 30 мс.
Размер потока : 173 Мбайт (7%)
Заголовок : LostFilm
Язык : Russian
Service kind : Complete Main
Default : Да
Forced : Нет
Statistics Tags Issue : mkvmerge v9.1.0 ('Little Earthquakes') 32bit 2021-12-19 21:37:42 / mkvmerge v7.8.0 ('River Man') 32bit built on Apr 3 2015 12:11:22 2021-12-27 18:56:37
FromStats_BitRate : 384000
FromStats_Duration : 01:01:19.840000000
FromStats_FrameCount : 114995
FromStats_StreamSize : 176632320

Аудио #2
Идентификатор : 3
Формат : AC-3
Формат/Информация : Audio Coding 3
Коммерческое название : Dolby Digital
Идентификатор кодека : A_AC3
Продолжительность : 1 ч. 3 м.
Вид битрейта : Постоянный
Битрейт : 640 Кбит/сек
Каналы : 6 каналов
Channel layout : L R C LFE Ls Rs
Частота : 48,0 КГц
Частота кадров : 31,250 кадров/сек (1536 SPF)
Метод сжатия : С потерями
Размер потока : 289 Мбайт (12%)
Заголовок : NewStudio
Язык : Russian
Service kind : Complete Main
Default : Нет
Forced : Нет

Текст
Идентификатор : 4
Формат : UTF-8
Идентификатор кодека : S_TEXT/UTF8
Идентификатор кодека/Информация : UTF-8 Plain Text
Заголовок : Rus
Язык : Russian
Default : Нет
Forced : Нет
Statistics Tags Issue : mkvmerge v9.1.0 ('Little Earthquakes') 32bit 2021-12-19 21:37:42 / mkvmerge v7.8.0 ('River Man') 32bit built on Apr 3 2015 12:11:22 2021-12-27 18:56:37
FromStats_BitRate : 64
FromStats_Duration : 01:01:04.375000000
FromStats_FrameCount : 650
FromStats_StreamSize : 29338

скриншот  скриншот  скриншот  скриншот  





The Witcher Nightmare of the Wolf
«Face Your Demons»


Год выпуска: 2021
Страна: США
Жанр: мультфильм, фэнтези, боевик
Продолжительность: 01:21:53
Перевод: Дублированный | Пифагор по заказу Netflix
Субтитры: русские |
Режиссер: Хан Гван-иль
В ролях: Тео Джеймс, Грэм Мактавиш, Мэри МакДоннелл, Лара Пулвер, Мэттью Кинг, Том Кэнтон, Давид Эрриго мл.
Описание:
Веcемир вырвался из нищеты и стал ведьмаком. Теперь он убивает монстров за монету и славу. Но приходит новый враг, и Весемиру придется столкнуться с демонами своего прошлого.
Мировая премьера: 23 августа 2021

Качество: WeB-DLRip 1080p Rip by DD2D3
Формат: MKV
Видео: V_MPEGH/ISO/HEVC; 1920x1080 (16:9); 4899 Kbps; 60 fps; 0,039 bpp
Аудио: русский; AC3+; 640; CBR; 6 ch ||
Навигация по главам: нет


Общее
Уникальный идентификатор : 238411598281954743722354876355617407721 (0xB35C6753C635AF71B56AA1A5A82AC2E9)
Полное имя : D:\The Witcher (tv series 2019 ...) WEB-DLRip - HEVC 1080p 10 bit 60 FPS\The Witcher Nightmare of the Wolf (2021) WeBRip - HEVC 1080p 10 bit 60 FPS.mkv
Формат : Matroska
Версия формата : Version 2
Размер файла : 3,23 Гбайт
Продолжительность : 1 ч. 21 м.
Общий поток : 5 652 Кбит/сек
Название фильма : Rip by from DD2D3
Дата кодирования : UTC 2021-12-27 10:28:58
Программа кодирования : mkvmerge v7.8.0 ('River Man') 32bit built on Apr 3 2015 12:11:22
Библиотека кодирования : libebml v1.3.1 + libmatroska v1.4.2
Attachments : poster

Видео
Идентификатор : 1
Формат : HEVC
Формат/Информация : High Efficiency Video Coding
Профиль формата : Main 10@L4.1@Main
Идентификатор кодека : V_MPEGH/ISO/HEVC
Продолжительность : 1 ч. 21 м.
Битрейт : 4 900 Кбит/сек
Ширина : 1 920 пикселей
Высота : 1 080 пикселей
Соотношение сторон : 16:9
Режим частоты кадров : Постоянный
Частота кадров : 60,000 кадров/сек
Цветовое пространство : YUV
Субдискретизация насыщенности : 4:2:0
Битовая глубина : 10 бит
Бит/(Пиксели*Кадры) : 0.039
Размер потока : 2,80 Гбайт (87%)
Библиотека кодирования : x265 3.5+10-82786fccc:[Windows][GCC 11.1.0][64 bit] 10bit
Настройки программы : cpuid=1111039 / frame-threads=2 / numa-pools=4 / wpp / no-pmode / no-pme / no-psnr / no-ssim / log-level=2 / input-csp=1 / input-res=1920x1080 / interlace=0 / total-frames=294811 / level-idc=41 / high-tier=1 / uhd-bd=0 / ref=3 / no-allow-non-conformance / no-repeat-headers / annexb / aud / no-eob / no-eos / no-hrd / info / hash=0 / no-temporal-layers / open-gop / min-keyint=25 / keyint=250 / gop-lookahead=0 / bframes=4 / b-adapt=2 / b-pyramid / bframe-bias=0 / rc-lookahead=20 / lookahead-slices=6 / scenecut=40 / hist-scenecut=0 / radl=0 / no-splice / no-intra-refresh / ctu=64 / min-cu-size=8 / no-rect / no-amp / max-tu-size=32 / tu-inter-depth=1 / tu-intra-depth=1 / limit-tu=0 / rdoq-level=0 / dynamic-rd=0.00 / no-ssim-rd / signhide / no-tskip / nr-intra=0 / nr-inter=0 / no-constrained-intra / strong-intra-smoothing / max-merge=3 / limit-refs=1 / no-limit-modes / me=2 / subme=5 / merange=57 / temporal-mvp / no-frame-dup / no-hme / weightp / no-weightb / no-analyze-src-pics / deblock=0:0 / no-sao / no-sao-non-deblock / rd=3 / selective-sao=0 / early-skip / no-rskip / no-fast-intra / no-tskip-fast / no-cu-lossless / b-intra / no-splitrd-skip / rdpenalty=0 / psy-rd=4.00 / psy-rdoq=0.00 / no-rd-refine / no-lossless / cbqpoffs=0 / crqpoffs=0 / rc=abr / bitrate=5000 / qcomp=0.60 / qpstep=1 / stats-write=0 / stats-read=2 / cplxblur=20.0 / qblur=0.5 / ipratio=1.10 / pbratio=1.00 / aq-mode=0 / aq-strength=0.00 / no-cutree / zone-count=0 / no-strict-cbr / qg-size=64 / rc-grain / qpmax=69 / qpmin=0 / const-vbv / sar=1 / overscan=0 / videoformat=5 / range=0 / colorprim=1 / transfer=1 / colormatrix=1 / chromaloc=0 / display-window=0 / cll=0,0 / min-luma=0 / max-luma=1023 / log2-max-poc-lsb=8 / vui-timing-info / vui-hrd-info / slices=1 / no-opt-qp-pps / no-opt-ref-list-length-pps / no-multi-pass-opt-rps / scenecut-bias=0.05 / hist-threshold=0.03 / no-opt-cu-delta-qp / no-aq-motion / no-hdr10 / no-hdr10-opt / no-dhdr10-opt / no-idr-recovery-sei / analysis-reuse-level=0 / analysis-save-reuse-level=0 / analysis-load-reuse-level=0 / scale-factor=0 / refine-intra=0 / refine-inter=0 / refine-mv=1 / refine-ctu-distortion=0 / no-limit-sao / ctu-info=0 / no-lowpass-dct / refine-analysis-type=0 / copy-pic=1 / max-ausize-factor=1.0 / no-dynamic-refine / no-single-sei / no-hevc-aq / no-svt / no-field / qp-adaptation-range=1.00 / scenecut-aware-qp=0conformance-window-offsets / right=0 / bottom=0 / decoder-max-rate=0 / no-vbv-live-multi-pass
Default : Да
Forced : Нет
Цветовой диапазон : Limited
Основные цвета : BT.709
Характеристики трансфера : BT.709
Коэффициенты матрицы : BT.709

Аудио
Идентификатор : 2
Формат : E-AC-3
Формат/Информация : Enhanced AC-3
Коммерческое название : Dolby Digital Plus
Идентификатор кодека : A_EAC3
Продолжительность : 1 ч. 21 м.
Вид битрейта : Постоянный
Битрейт : 640 Кбит/сек
Каналы : 6 каналов
Channel layout : L R C LFE Ls Rs
Частота : 48,0 КГц
Частота кадров : 31,250 кадров/сек (1536 SPF)
Метод сжатия : С потерями
Размер потока : 375 Мбайт (11%)
Заголовок : Пифагор
Язык : Russian
Service kind : Complete Main
Default : Да
Forced : Нет
Statistics Tags Issue : mkvmerge v57.0.0 ('Till The End') 64-bit / mkvmerge v7.8.0 ('River Man') 32bit built on Apr 3 2015 12:11:22 2021-12-27 10:28:58
FromStats_BitRate : 640000
FromStats_Duration : 01:21:53.024000000
FromStats_FrameCount : 153532
FromStats_StreamSize : 393041920

Текст
Идентификатор : 3
Формат : UTF-8
Идентификатор кодека : S_TEXT/UTF8
Идентификатор кодека/Информация : UTF-8 Plain Text
Язык : Russian
Default : Нет
Forced : Нет
Statistics Tags Issue : mkvmerge v57.0.0 ('Till The End') 64-bit / mkvmerge v7.8.0 ('River Man') 32bit built on Apr 3 2015 12:11:22 2021-12-27 10:28:58
FromStats_BitRate : 88
FromStats_Duration : 01:21:32.334000000
FromStats_FrameCount : 1020
FromStats_StreamSize : 54095

скриншот  скриншот  скриншот  скриншот  



© Оформление by DD2D3 piratbit.org



Скачать Ведьмак: Коллекция через торрент http://images.vfl.ru/ii/1641236929/84c370df/37382136.png Скачать, смотреть онлайн Ведьмак: Коллекция бесплантно в хорошем качестве Описание: Ведьмак Геральт, мутант и убийца чудовищ, на своей верной лошади по кличке Плотва путешествует по Континенту. За тугой мешочек ... 7.5 10 10
Info! Золотая раздача, скачанное не засчитывается.
Торрент: Зарегистрирован [2022-01-03 20:18] · скачан: 2 раз
Статус: # сомнительно
Размер: 40.37 GB
Как cкачать? Как скачать Ведьмак: Коллекция через торрент | UTorrent

28-11-2019 20:33  

Отключить всю рекламу на сайте

06-01-2022 16:55 Ведьмак: Коллекция Скачать торрент  

Раздайте пожалуйста, народ!piratbit.org



06-01-2022 18:14 Ведьмак: Коллекция Скачать торрент  

я на раздачеpiratbit.org



06-01-2022 21:34 Ведьмак: Коллекция Скачать торрент  

dd2d3 писал(а):

я на раздаче

Все равно только треть качает и останавливается( Жизнь тленpiratbit.org



08-01-2022 12:40 Ведьмак: Коллекция Скачать торрент  

dd2d3, нет раздачиpiratbit.org



09-01-2022 11:09 Ведьмак: Коллекция Скачать торрент  

ну, я стою на раздаче, но никто не качает или это мое заблуждение скриншот  piratbit.org



14-01-2022 12:37 Ведьмак: Коллекция Скачать торрент  

Раздайте еще раз)), пока закачка стоит на месте😀piratbit.org



    Дорогой пользователь! Огромная просьба, поблагодарите релизера, оцените раздачу и оставьте свои комментарий, если Вы скачали Ведьмак: Коллекция через торрент бесплатно!
    Комментировать посты могут только пользователи прошедшие не сложную регистрацию
    Показать сообщения:    

    Ведьмак: Коллекция через торрент
    Скачать бесплатно Ведьмак: Коллекция
    Ведьмак: Коллекция скачать торрент
    Ведьмак: Коллекция смотреть онлайн
    Cкачать фильм Ведьмак: Коллекция бесплатно
    Ведьмак: Коллекция скачать торрент в хорошем качестве
    Ведьмак: Коллекция смотреть онлайн бесплатно в хорошем качестве


    Вы не можете начинать темы
    Вы не можете отвечать на сообщения
    Вы не можете редактировать свои сообщения
    Вы не можете удалять свои сообщения
    Вы не можете голосовать в опросах
    Вы не можете прикреплять файлы к сообщениям
    Вы можете скачивать файлы