2 сезон

iTunes

WEBRip

1

2 сезон

iTunes

1 сезон

1 сезон

RePack

30

Ultimate

ВАЖНО

ИГРА 18+

pack

RePack

MK11
pack

Легкие деньги

RePack

jed

RePack

fifa19

RePack

RDR2

RePack

NEED FOR SPEED™ PAYBACK

4 сезон

9 сезон

Бесстыжие 9 сезон

Все сериалы

все сериалы на PB.wtf

RePack

FAR CRY 5

Anonymous, доброе утро, мы не успеваем собрать деньги на оплату серверов за февраль, помогите нам пожалуйста в это трудное время. В качестве благодарности мы отключим Вам всю рекламу на сайте (укажите свой ник в строку Ваше имя)!

×
  
Magnet ссылка

Фокстер и Макс / Фокстер & Макс (Анатолий Матешко) [2019, фэнтези, приключения, семейный, WEBRip 1080p] [Ukr] piratbit.org

Фокстер и Макс через торрент piratbit.org

Размер: 2.8 GB | Добавлен: 1 год 1 мес. назад | Торрент скачан:33 раза
Скачать  

08-01-2020 19:28 Фокстер и Макс Скачать торрент  

Фокстер и Макс / Фокстер & Макс Информация о фильме

Год выхода: 2019
Жанр: фэнтези, приключения, семейный
Страна: Украина
Продолжительность: 01:28:31
Перевод: Оригинал (Украинский) | Line

Режиссер: Анатолий Матешко

В ролях: Томаш Освецинский, Максим Самчик, Дарья Полунина, Владислав Мамчур, Роман Халаимов, Богдан Козий, Максим Родионов, Виталия Турчин, Анастасия Походенко

О фильме:

По сюжету, мальчик Макс использовал нано-краски и его мечта сбылась: нарисованное им граффити ожило и превратилось в собаку-супергероя Фокстера.

rating
скриншот  

Файл

Качество: WEBRip 1080p
Кодек: x.264
Видео: AVC, 1920x1080 (16:9), 24.000 fps, 4 339 kb/s
Аудио: AC-3, 48.0 kHz, 2 ch, 192 kb/s
Субтитры: Отсутствуют

Сэмпл
General

Unique ID : 212822212476425142671957968944827765447 (0xA01C1132F6F3F55AA578616BEB2C92C7)

Complete name : Foxter.and.Max.(2019).WEBRip.1080p.UKR.mkv

Format : Matroska

Format version : Version 4

File size : 2.80 GiB

Duration : 1 h 28 min

Overall bit rate mode : Variable

Overall bit rate : 4 533 kb/s

Encoded date : UTC 2020-01-08 12:08:45

Writing application : mkvmerge v8.3.0 ('Over the Horizon') 64bit

Writing library : libebml v1.3.1 + libmatroska v1.4.2

Video

ID : 1

Format : AVC

Format/Info : Advanced Video Codec

Format profile : Main@L4

Format settings : CABAC / 1 Ref Frames

Format settings, CABAC : Yes

Format settings, ReFrames : 1 frame

Codec ID : V_MPEG4/ISO/AVC

Duration : 1 h 28 min

Bit rate mode : Variable

Bit rate : 4 339 kb/s

Maximum bit rate : 13.5 Mb/s

Width : 1 920 pixels

Height : 1 080 pixels

Display aspect ratio : 16:9

Frame rate mode : Constant

Frame rate : 24.000 FPS

Color space : YUV

Chroma subsampling : 4:2:0

Bit depth : 8 bits

Scan type : Progressive

Bits/(Pixel*Frame) : 0.087

Stream size : 2.68 GiB (96%)

Default : Yes

Forced : No

Audio

ID : 2

Format : AC-3

Format/Info : Audio Coding 3

Commercial name : Dolby Digital

Codec ID : A_AC3

Duration : 1 h 28 min

Bit rate mode : Constant

Bit rate : 192 kb/s

Channel(s) : 2 channels

Channel layout : L R

Sampling rate : 48.0 kHz

Frame rate : 31.250 FPS (1536 SPF)

Bit depth : 16 bits

Compression mode : Lossy

Stream size : 122 MiB (4%)

Default : Yes

Forced : No
скриншот  скриншот  скриншот  
piratbit.org



Скачать Фокстер и Макс через торрент https://i111.fastpic.ru/big/2020/0108/0a/d888c4d623ee9d52ba4c6587d35bf40a.jpg Скачать фильм Фокстер и Макс через торрент бесплантно в хорошем качестве О фильме:По сюжету, мальчик Макс использовал нано-краски и его мечта сбылась: нарисованное им граффити ожило и превратилось в ... 10 10 1
Info! Золотая раздача, скачанное не засчитывается.
Торрент: Зарегистрирован [2020-01-08 19:28] · скачан: 33 раз
Статус: T временная
Размер: 2.8 GB
Как cкачать? Как скачать Фокстер и Макс через торрент | UTorrent

28-11-2019 20:33  

Отключить всю рекламу на сайте

    Дорогой пользователь! Огромная просьба, поблагодарите релизера, оцените раздачу и оставьте свои комментарий, если Вы скачали Фокстер и Макс через торрент бесплатно! Внесите свою лепту в развитие PiratBit!
    Комментировать посты могут только пользователи прошедшие не сложную регистрацию
    Показать сообщения:    

    Фокстер и Макс через торрент
    Скачать бесплатно Фокстер и Макс
    Фокстер и Макс скачать торрент
    Фокстер и Макс смотреть онлайн
    Cкачать фильм Фокстер и Макс бесплатно
    Фокстер и Макс скачать торрент в хорошем качестве
    Фокстер и Макс смотреть онлайн бесплатно в хорошем качестве


    Вы не можете начинать темы
    Вы не можете отвечать на сообщения
    Вы не можете редактировать свои сообщения
    Вы не можете удалять свои сообщения
    Вы не можете голосовать в опросах
    Вы не можете прикреплять файлы к сообщениям
    Вы можете скачивать файлы