Ссылка на приватное зеркало нашего сайта всего за 1$. Внимание количество ограничено!!!

2 сезон

iTunes

1 сезон

1

2 сезон

2 сезон

iTunes

1 сезон

RePack

30

Ultimate

ВАЖНО

ИГРА 18+

pack

RePack

MK11
pack

Забери бонус

RePack

jed

!!Акция!!

Alien_Rage

RePack

fifa19

RePack

Assassins Creed: Odyssey

RePack

NEED FOR SPEED™ PAYBACK

4 сезон

9 сезон

Бесстыжие 9 сезон

Все сериалы

все сериалы на PB.wtf

RePack

FAR CRY 5
  

Все оттенки тьмы / Tutti i colori del buio (Серджо Мартино) [1972, ужасы, триллер, BDRip 1080p by msltel] VO piratbit.org

Все оттенки тьмы через торрент piratbit.org

Размер: 8.33 GB | Добавлен: 10 мес. назад | Торрент скачан:0 раз
Скачать  

09-01-2020 06:56 Все оттенки тьмы Скачать торрент  

Название: Все оттенки тьмы
Оригинальное название: Tutti i colori del buio
Год выпуска: 1972
Страна: Италия, Испания, Великобритания
Жанр: ужасы, триллер
Продолжительность: 01:34:28
Перевод: любительский одноголосый

Режиссер: Серджо Мартино
В ролях: Джордж Хилтон, Эдвиж Фенек, Иван Рассимов, Джулиан Угарте, Жорж Риго, Мария Кумани Квазимодо, Нивз Наварро, Марина Малфатти, Лучиано Пигоцци, Доминик Босчеро

О фильме: Джейн живёт в Лондоне со своим бойфрендом Ричардом. Когда ей было 5 лет, она стала свидетельницей убийства своей матери. Плюс, совсем недавно она потеряла в автокатастрофе ребёнка. Ей постоянно снятся страшные сны, в которых голубоглазый незнакомец с ножом охотится на неё. Ричард пытается помочь ей, но его рецепт - всего лишь горстка витаминов. Барбара, сестра Джейн, предлагает серьёзную помощь – психоанализ. Неожиданно, познакомившись с милой соседкой, Джейн находит себе избавление от кошмаров. Та обещает полное избавление от страха, взамен - участие в сатанинских ритуалах. Вначале чёрные мессы помогают, но потом её кошмары воплощаются в реальности...



Качество: BDRip 1080p
Формат: MKV
Видео: MPEG-4 AVC, 12.2 Mбит/с, 1920x808, 24 Кадр/с
Аудио 1: русский, AC3, 192 kbps, 2 ch, 48 kHz [закадровый одноголосый, Виталий Арсеньев]
Аудио 2: итальянский, AC3, 192 kbps, 2 ch, 48 kHz [оригинал]
Субтитры: английские
Главы/чаптеры
Общее
Уникальный идентификатор : 229830918798540882010007861727084683614 (0xACE7D32A6B4A35CABCBB61C8D35C215E)
Полное имя : D:\Video\Все оттенки тьмы.1972.BDRip 1080p by msltel.mkv
Формат : Matroska
Версия формата : Version 4
Размер файла : 8,33 Гбайт
Продолжительность : 1 ч. 34 м.
Общий поток : 12,6 Мбит/сек
Название фильма : Rip by msltel
Дата кодирования : UTC 2020-01-09 02:10:50
Программа кодирования : mkvmerge v8.2.0 ('World of Adventure') 64bit
Библиотека кодирования : libebml v1.3.1 + libmatroska v1.4.2

Видео
Идентификатор : 1
Формат : AVC
Формат/Информация : Advanced Video Codec
Профиль формата : High@L4.1
Настройки формата : CABAC / 4 Ref Frames
Параметр CABAC формата : Да
Параметр RefFrames формата : 4 кадра
Идентификатор кодека : V_MPEG4/ISO/AVC
Продолжительность : 1 ч. 34 м.
Битрейт : 12,2 Мбит/сек
Ширина : 1920 пикселей
Высота : 808 пикселей
Соотношение сторон : 2,40:1
Режим частоты кадров : Постоянный
Частота кадров : 24,000 кадра/сек
Цветовое пространство : YUV
Субдискретизация насыщенности : 4:2:0
Битовая глубина : 8 бит
Тип развёртки : Прогрессивная
Бит/(Пиксели*Кадры) : 0.329
Размер потока : 8,07 Гбайт (97%)
Библиотека кодирования : x264 core 157 r2935 545de2f
Настройки программы : cabac=1 / ref=4 / deblock=1:-2:-2 / analyse=0x3:0x113 / me=umh / subme=11 / psy=1 / psy_rd=1.00:0.15 / mixed_ref=1 / me_range=32 / chroma_me=1 / trellis=2 / 8x8dct=1 / cqm=0 / deadzone=21,11 / fast_pskip=0 / chroma_qp_offset=-3 / threads=6 / lookahead_threads=1 / sliced_threads=0 / nr=0 / decimate=1 / interlaced=0 / bluray_compat=0 / constrained_intra=0 / bframes=12 / b_pyramid=2 / b_adapt=2 / b_bias=0 / direct=1 / weightb=1 / open_gop=0 / weightp=2 / keyint=230 / keyint_min=23 / scenecut=40 / intra_refresh=0 / rc_lookahead=40 / rc=crf / mbtree=0 / crf=23.0 / qcomp=0.60 / qpmin=0 / qpmax=69 / qpstep=4 / vbv_maxrate=50000 / vbv_bufsize=62500 / crf_max=0.0 / nal_hrd=none / filler=0 / ip_ratio=1.40 / pb_ratio=1.30 / aq=1:1.00
Язык : Italian
Default : Да
Forced : Нет

Аудио #1
Идентификатор : 2
Формат : AC-3
Формат/Информация : Audio Coding 3
Коммерческое название : Dolby Digital
Идентификатор кодека : A_AC3
Продолжительность : 1 ч. 34 м.
Вид битрейта : Постоянный
Битрейт : 192 Кбит/сек
Каналы : 2 канала
ChannelLayout : L R
Частота : 48,0 КГц
Частота кадров : 31,250 кадров/сек (1536 SPF)
Метод сжатия : С потерями
Размер потока : 130 Мбайт (2%)
Заголовок : Виталий Арсеньев
Язык : Russian
ServiceKind/String : Complete Main
Default : Да
Forced : Нет

Аудио #2
Идентификатор : 3
Формат : AC-3
Формат/Информация : Audio Coding 3
Коммерческое название : Dolby Digital
Идентификатор кодека : A_AC3
Продолжительность : 1 ч. 34 м.
Вид битрейта : Постоянный
Битрейт : 192 Кбит/сек
Каналы : 2 канала
ChannelLayout : L R
Частота : 48,0 КГц
Частота кадров : 31,250 кадров/сек (1536 SPF)
Метод сжатия : С потерями
Размер потока : 130 Мбайт (2%)
Заголовок : original
Язык : Italian
ServiceKind/String : Complete Main
Default : Нет
Forced : Нет

Текст
Идентификатор : 4
Формат : UTF-8
Идентификатор кодека : S_TEXT/UTF8
Идентификатор кодека/Информация : UTF-8 Plain Text
Продолжительность : 1 ч. 33 м.
Битрейт : 30 бит/сек
ElementCount : 811
Размер потока : 21,2 Кбайт (0%)
Заголовок : английские
Язык : English
Default : Нет
Forced : Нет

Меню
00:00:00.000 : en:Chapter 1
00:04:01.791 : en:Chapter 2
00:10:21.916 : en:Chapter 3
00:17:12.541 : en:Chapter 4
00:26:18.250 : en:Chapter 5
00:32:26.958 : en:Chapter 6
00:40:15.250 : en:Chapter 7
00:48:13.458 : en:Chapter 8
00:56:19.333 : en:Chapter 9
01:06:34.333 : en:Chapter 10
01:19:00.166 : en:Chapter 11
01:27:24.208 : en:Chapter 12
piratbit.org



Скачать Все оттенки тьмы через торрент https://a.radikal.ru/a26/2001/b0/ed079d763db7.jpg Скачать фильм Все оттенки тьмы через торрент бесплантно в хорошем качестве О фильме: Джейн живёт в Лондоне со своим бойфрендом Ричардом. Когда ей было 5 лет, она стала свидетельницей убийства своей матери. Плюс, ... 5 10 1
Торрент: Зарегистрирован [2020-01-09 06:56] · скачан: 0 раз
Статус: √ проверено
Размер: 8.33 GB
Как cкачать? Как скачать Все оттенки тьмы через торрент | qTorrent

% Раздел Тема Автор DL S | L
Классика зарубежного кино [ 3.51 GB ] Все оттенки тьмы / Tutti i colori del buio [1972 BDRip 720p by msltel] VO msltel Скачать
1 | 0
Классика зарубежного кино [ 1.74 GB ] Все оттенки тьмы / Tutti i colori del buio [1972 BDRip-AVC by msltel] VO msltel Скачать
1 | 0

28-11-2019 20:33  

Отключить всю рекламу на сайте

    Дорогой пользователь! Огромная просьба, поблагодарите релизера, оцените раздачу и оставьте свои комментарий, если Вы скачали Все оттенки тьмы через торрент бесплатно! Внесите свою лепту в развитие PiratBit!
    Комментировать посты могут только пользователи прошедшие не сложную регистрацию
    Показать сообщения:    

    Все оттенки тьмы через торрент
    Скачать бесплатно Все оттенки тьмы
    Все оттенки тьмы скачать торрент
    Все оттенки тьмы смотреть онлайн
    Cкачать фильм Все оттенки тьмы бесплатно
    Все оттенки тьмы скачать торрент в хорошем качестве
    Все оттенки тьмы смотреть онлайн бесплатно в хорошем качестве


    Вы не можете начинать темы
    Вы не можете отвечать на сообщения
    Вы не можете редактировать свои сообщения
    Вы не можете удалять свои сообщения
    Вы не можете голосовать в опросах
    Вы не можете прикреплять файлы к сообщениям
    Вы можете скачивать файлы