Доктор Стрэндж

Лицензия

Добыча

Дубляж

Дом дракона

1 сезон

Тор

Дубляж

В эфире

Дубляж

Там, где раки поют

MVO

Властелин колец

1 сезон

Ultimate

pack

Рекомендуем

30

Пиратка

ВАЖНО

ВАЖНО

Ghostwire

Пиратка

jed

RePack

nioh2

RePack

RDR2

RePack

NEED FOR SPEED™ PAYBACK

RePack

скачать торрент

Кинопоиск HD

Острые козырьки 6 сезон

6 сезон

FAR CRY 6

RePack

скачать торрент

Лицензия

скачать торрент

MVO

1

1 сезон

скачать торрент

1 сезон

скачать торрент

Лицензия

  

Красавчик со стажем / Just a Gigolo (Оливье Барру) [2019 г., Комедия, HDRip, Дубляж "iTunes"]

Красавчик со стажем через торрент piratbit.org

Размер: 709 MB | Добавлен: 2 года 10 мес. назад | Торрент скачан:78 раз
Смотреть онлайн | Скачать   

09-01-2020 18:27 Красавчик со стажем Скачать торрент  

Красавчик со стажем / Just a Gigolo
Год выпуска: 2019
Страна: Франция / Eskwad, Chapter 2, TF1 Studio
Жанр: Комедия
Продолжительность: 01:33:54
Перевод: Дубляж (iTunes)

Режиссер: Оливье Барру

rating

В ролях: Кад Мерад, Анн Шаррье, Леопольд Моати, Паскаль Элбе, Тьерри Лермитт, Анни Дюпере, Лионель Абелански, Ги Леклюиз, Альбан Мазель, Ариель Семенофф, Андреа Ферреоль, Мила Юблен, Реми Жобер, Янн Лера, Лассана Лестен, Матильда Муано, Людивин Колле

Описание: Встречайте мужчину мечты! Он знает секреты обольщения и вовсю этим пользуется, чтобы жить в свое удовольствие. Возможно, опытный мачо уже немного растерял обаяние, но отказываться от роскошной жизни не входит в его планы. Применяя весь свой арсенал, он вновь готов вернуться в игру.

Качество: HDRip
Формат: AVI
Видео кодек: DivX
Аудио кодек: MP3
Видео: 672x280 (2.40:1), 24.000 fps, DivX Codec 4.x ~918 kbps avg, 0.20 bit/pixel
Аудио: 48 kHz, MPEG Layer 3, 2 ch, ~128.00 kbps avg
скриншот   скриншот   скриншот   скриншот   скриншот   скриншот   скриншот   скриншот  

Общее
Полное имя : F:\ФИЛЬМЫ\Красавчик со стажем.2019.D.HDRip.avi
Формат : AVI
Формат/Информация : Audio Video Interleave
Размер файла : 709 Мбайт
Продолжительность : 1 ч. 33 м.
Общий поток : 1056 Кбит/сек
Программа кодирования : VirtualDubMod 1.5.10.3 | www.virtualdub-fr.org || (build 2550/release)
Библиотека кодирования : VirtualDubMod build 2550/release

Видео
Идентификатор : 0
Формат : MPEG-4 Visual
Профиль формата : Advanced Simple@L5
Настройки формата : BVOP3 / GMC3 / QPel
Параметр BVOP формата : 3
Параметр QPel формата : Да
Параметр GMC формата : 3 точки перехода
Параметр матрицы формата : Default (MPEG)
Идентификатор кодека : DIVX
Идентификатор кодека/Информация : Project Mayo
Идентификатор кодека/Подсказка : DivX 4
Продолжительность : 1 ч. 33 м.
Битрейт : 918 Кбит/сек
Ширина : 672 пикселя
Высота : 280 пикселей
Соотношение сторон : 2,40:1
Частота кадров : 24,000 кадра/сек
Цветовое пространство : YUV
Субдискретизация насыщенности : 4:2:0
Битовая глубина : 8 бит
Тип развёртки : Прогрессивная
Метод сжатия : С потерями
Бит/(Пиксели*Кадры) : 0.203
Размер потока : 617 Мбайт (87%)
Библиотека кодирования : XviD 1.2.1 (UTC 2008-12-04)

Аудио
Идентификатор : 1
Формат : MPEG Audio
Версия формата : Version 1
Профиль формата : Layer 3
Настройки формата : Joint stereo / MS Stereo
Идентификатор кодека : 55
Идентификатор кодека/Подсказка : MP3
Продолжительность : 1 ч. 33 м.
Вид битрейта : Постоянный
Битрейт : 128 Кбит/сек
Каналы : 2 канала
Частота : 48,0 КГц
Частота кадров : 41,667 кадра/сек (1152 SPF)
Метод сжатия : С потерями
Размер потока : 86,0 Мбайт (12%)
Выравнивание : Соединение по промежуткам
Продолжительность промежутка : 42 мс. (1,00 видеокадр)
Время предзагрузки промежутка : 504 мс.
Библиотека кодирования : LAME3.99r
Настройки программы : -m j -V 4 -q 2 -lowpass 17 -b 128




Скачать Красавчик со стажем через торрент https://pic1.kartinco.top/images/12/ao9lb.jpg Скачать, смотреть онлайн Красавчик со стажем бесплантно в хорошем качестве Описание: Встречайте мужчину мечты! Он знает секреты обольщения и вовсю этим пользуется, чтобы жить в свое удовольствие. Возможно, опытный ... 9.8 10 5
Торрент: Зарегистрирован [2020-01-09 18:27] · скачан: 78 раз
Статус: √ проверено
Размер: 709 MB
Как cкачать? Как скачать Красавчик со стажем через торрент | UTorrent

% Раздел Тема Автор DL S | L
Фильмы 2019-2020 [DVDrip, WEB-DLRip, HDrip] (DUB, MVO) [ 1.42 GB ] Красавчик со стажем / Just a Gigolo | Лицензия | BDRip Twi7ter Скачать
2 | 0
Фильмы 2019-2020 [DVDrip, WEB-DLRip, HDrip] (DUB, MVO) [ 1.45 GB ] Красавчик со стажем / Just a Gigolo | iTunes | HDRip-AVC Lithuania Скачать
1 | 0
T Фильмы [HD 720p, 1080p] (Хороший звук DUB, MVO) [ 7.9 GB ] Красавчик со стажем / Just a Gigolo | iTunes | 1080p bober100 Скачать
2 | 0
Фильмы 2019-2020 [DVDrip, WEB-DLRip, HDrip] (DUB, MVO) [ 745 MB ] Красавчик со стажем / Just a Gigolo | iTunes | DLRip-AVC Skandar2019 Скачать
1 | 0
Фильмы 2019-2020 [DVDrip, WEB-DLRip, HDrip] (DUB, MVO) [ 1.42 GB ] Красавчик со стажем / Just a Gigolo | iTunes | BDRip bober100 Скачать
1 | 0
Фильмы (WEB-DL 720p, 1080p) [ 3.02 GB ] Красавчик со стажем / Just a Gigolo | iTunes | 720p bober100 Скачать
1 | 0
Фильмы (WEB-DL 720p, 1080p) [ 3.39 GB ] Красавчик со стажем / Just a Gigolo | iTunes | 1080p bober100 Скачать
1 | 0

28-11-2019 20:33  


Отключить вcю реклaмy на сайте, в т.ч. и в плеере онлайн просмотра!

    Дорогой пользователь! Огромная просьба, поблагодарите релизера, оцените раздачу и оставьте свои комментарий, если Вы скачали Красавчик со стажем через торрент бесплатно!!
    Комментировать посты могут только пользователи прошедшие не сложную регистрацию
    Показать сообщения:    


    Красавчик со стажем через торрент
    Скачать бесплатно Красавчик со стажем
    Красавчик со стажем скачать торрент
    Красавчик со стажем смотреть онлайн
    Cкачать фильм Красавчик со стажем бесплатно
    Красавчик со стажем скачать торрент в хорошем качестве
    Красавчик со стажем смотреть онлайн бесплатно в хорошем качестве
    Вы не можете начинать темы
    Вы не можете отвечать на сообщения
    Вы не можете редактировать свои сообщения
    Вы не можете удалять свои сообщения
    Вы не можете голосовать в опросах
    Вы не можете прикреплять файлы к сообщениям
    Вы можете скачивать файлы
    Красавчик со стажем / Just a Gigolo [2019 г., Комедия, HDRip, Дубляж "iTunes"] смотреть онлайн, скачать торрент picoco.icu