1 сезон

1 сезон

iTunes

1

КиноПоиск HD

Кинопоиск HD

iTunes

13

1 сезон

RePack

30

Ultimate

ВАЖНО

ИГРА 18+

pack

RePack

MK11
pack

Легкие деньги

RePack

jed

RePack

fifa19

RePack

RDR2

RePack

NEED FOR SPEED™ PAYBACK

4 сезон

9 сезон

Бесстыжие 9 сезон

Все сериалы

все сериалы на PB.wtf

RePack

FAR CRY 5
  
Magnet ссылка

Жанна-Дева - Битвы / Jeanne la Pucelle I - Les batailles (Жак Риветт) [1994, драма, биография, история, BDRip-AVC by msltel] DVO piratbit.org

Жанна-Дева - Битвы через торрент piratbit.org

Размер: 3.68 GB | Добавлен: 1 год 3 мес. назад | Торрент скачан:9 раз
Скачать  

13-01-2020 11:10 Жанна-Дева - Битвы Скачать торрент  

Название: Жанна-Дева – Битвы
Оригинальное название: Jeanne la Pucelle I - Les batailles
Год выпуска: 1994
Страна: Франция
Жанр: драма, биография, история
Продолжительность: 02:40:22
Перевод: профессиональный двухголосый

Режиссер: Жак Риветт
В ролях: Сандрин Боннэр, Марсель Бозонне, Стефан Буше, Пьер Бэйот, Жан-Клод Жей, Бернадетта Жиро, Оливье Крувилье, Андре Маркон, Татьяна Мухина, Квентин Ожье, Жан-Мари Ришье, Батист Руссийон, Матиас Юнг, Мартина Паскаль

О фильме: В первой части исторического повествования 13-летняя Жанна покидает отчий дом в деревеньке Домреми, решаясь на этот шаг после того, как ею был услышан голос святой Екатерины Александрийской и архангела Михаила. Через какое-то время эти же голоса подсказали девушке, что ей необходимо снять осаду с Орлеана, изгнать захватчиков из королевства и возвести на трон Дофина. Но перед этим она приезжает в резиденцию Дофина и рассказывает ему, что она послана небом для свержения английского господства и просит у него войска, чтобы снять осаду с Орлеана. Дофин, поверив её словам, назначает Жанну командующей войск...



Качество: BDRip-AVC
Формат: MKV
Видео: MPEG-4 AVC, 2646 Kбит/с, 1024x552, 24 кадр/с
Аудио 1: русский, AC3, 192 kbps, 2 ch, 48 kHz [закадровый двухголосый, Видеофильм по заказу НТВ]
Аудио 2: французский, AC3, 448 kbps, 6 ch, 48 kHz [оригинал]
Субтитры 1: русские
Субтитры 2: английские
Главы/чаптеры
Общее
Уникальный идентификатор : 230443543424476455623319578041639662327 (0xAD5DCFE44A6CAAD788275DAF88AE72F7)
Полное имя : D:\Video\Жанна-Дева - Битвы.1994.BDRip-AVC by msltel.mkv
Формат : Matroska
Версия формата : Version 4
Размер файла : 3,68 Гбайт
Продолжительность : 2 ч. 40 м.
Общий поток : 3289 Кбит/сек
Дата кодирования : UTC 2020-01-13 08:27:25
Программа кодирования : mkvmerge v8.2.0 ('World of Adventure') 64bit
Библиотека кодирования : libebml v1.3.1 + libmatroska v1.4.2

Видео
Идентификатор : 1
Формат : AVC
Формат/Информация : Advanced Video Codec
Профиль формата : High@L4.1
Настройки формата : CABAC / 9 Ref Frames
Параметр CABAC формата : Да
Параметр RefFrames формата : 9 кадров
Идентификатор кодека : V_MPEG4/ISO/AVC
Продолжительность : 2 ч. 40 м.
Битрейт : 2646 Кбит/сек
Ширина : 1024 пикселя
Высота : 552 пикселя
Соотношение сторон : 1,85:1
Режим частоты кадров : Постоянный
Частота кадров : 24,000 кадра/сек
Цветовое пространство : YUV
Субдискретизация насыщенности : 4:2:0
Битовая глубина : 8 бит
Тип развёртки : Прогрессивная
Бит/(Пиксели*Кадры) : 0.195
Размер потока : 2,96 Гбайт (80%)
Библиотека кодирования : x264 core 157 r2935 545de2f
Настройки программы : cabac=1 / ref=9 / deblock=1:-2:-2 / analyse=0x3:0x113 / me=umh / subme=11 / psy=1 / psy_rd=1.00:0.15 / mixed_ref=1 / me_range=32 / chroma_me=1 / trellis=2 / 8x8dct=1 / cqm=0 / deadzone=21,11 / fast_pskip=0 / chroma_qp_offset=-3 / threads=6 / lookahead_threads=1 / sliced_threads=0 / nr=0 / decimate=1 / interlaced=0 / bluray_compat=0 / constrained_intra=0 / bframes=14 / b_pyramid=2 / b_adapt=2 / b_bias=0 / direct=1 / weightb=1 / open_gop=0 / weightp=2 / keyint=230 / keyint_min=23 / scenecut=40 / intra_refresh=0 / rc_lookahead=40 / rc=crf / mbtree=0 / crf=19.0 / qcomp=0.60 / qpmin=0 / qpmax=69 / qpstep=4 / vbv_maxrate=50000 / vbv_bufsize=62500 / crf_max=0.0 / nal_hrd=none / filler=0 / ip_ratio=1.40 / pb_ratio=1.30 / aq=1:1.00
Язык : French
Default : Да
Forced : Нет

Аудио #1
Идентификатор : 2
Формат : AC-3
Формат/Информация : Audio Coding 3
Коммерческое название : Dolby Digital
Идентификатор кодека : A_AC3
Продолжительность : 2 ч. 40 м.
Вид битрейта : Постоянный
Битрейт : 192 Кбит/сек
Каналы : 2 канала
ChannelLayout : L R
Частота : 48,0 КГц
Частота кадров : 31,250 кадров/сек (1536 SPF)
Метод сжатия : С потерями
Размер потока : 220 Мбайт (6%)
Заголовок : DVO Видеофильм по заказу НТВ
Язык : Russian
ServiceKind/String : Complete Main
Default : Да
Forced : Нет

Аудио #2
Идентификатор : 3
Формат : AC-3
Формат/Информация : Audio Coding 3
Коммерческое название : Dolby Digital
Идентификатор кодека : A_AC3
Продолжительность : 2 ч. 40 м.
Вид битрейта : Постоянный
Битрейт : 448 Кбит/сек
Каналы : 6 каналов
ChannelLayout : L R C LFE Ls Rs
Частота : 48,0 КГц
Частота кадров : 31,250 кадров/сек (1536 SPF)
Метод сжатия : С потерями
Размер потока : 514 Мбайт (14%)
Заголовок : original
Язык : French
ServiceKind/String : Complete Main
Default : Нет
Forced : Нет

Текст #1
Идентификатор : 4
Формат : UTF-8
Идентификатор кодека : S_TEXT/UTF8
Идентификатор кодека/Информация : UTF-8 Plain Text
Продолжительность : 2 ч. 35 м.
Битрейт : 73 бит/сек
ElementCount : 1341
Размер потока : 83,7 Кбайт (0%)
Заголовок : русские
Язык : Russian
Default : Нет
Forced : Нет

Текст #2
Идентификатор : 5
Формат : UTF-8
Идентификатор кодека : S_TEXT/UTF8
Идентификатор кодека/Информация : UTF-8 Plain Text
Продолжительность : 2 ч. 32 м.
Битрейт : 38 бит/сек
ElementCount : 1498
Размер потока : 43,3 Кбайт (0%)
Заголовок : английские
Язык : English
Default : Нет
Forced : Нет

Меню
00:00:00.000 : en:Chapter 1
00:07:40.875 : en:Chapter 2
00:21:30.625 : en:Chapter 3
00:32:14.625 : en:Chapter 4
00:38:37.167 : en:Chapter 5
00:51:53.583 : en:Chapter 6
01:00:13.000 : en:Chapter 7
01:12:40.750 : en:Chapter 8
01:21:54.625 : en:Chapter 9
01:31:21.250 : en:Chapter 10
01:41:35.083 : en:Chapter 11
01:50:20.792 : en:Chapter 12
02:00:20.542 : en:Chapter 13
02:09:46.833 : en:Chapter 14
02:19:08.000 : en:Chapter 15
02:29:03.500 : en:Chapter 16
piratbit.org



Скачать Жанна-Дева - Битвы через торрент https://d.radikal.ru/d19/2001/db/2785275f0bd2.png Скачать фильм Жанна-Дева - Битвы через торрент бесплантно в хорошем качестве О фильме: В первой части исторического повествования 13-летняя Жанна покидает отчий дом в деревеньке Домреми, решаясь на этот шаг после ... 10 10 1
Торрент: Зарегистрирован [2020-01-13 11:10] · скачан: 9 раз
Статус: √ проверено
Размер: 3.68 GB
Как cкачать? Как скачать Жанна-Дева - Битвы через торрент | UTorrent

% Раздел Тема Автор DL S | L
Арт-хаус и авторское кино [ 20.27 GB ] Жанна-Дева - Битвы / Jeanne la Pucelle I - Les batailles [1994 биография история BDRip 1080p by msltel] DVO msltel Скачать
1 | 0
Арт-хаус и авторское кино [ 7.03 GB ] Жанна-Дева - Битвы / Jeanne la Pucelle I - Les batailles [1994 биография история BDRip 720p by msltel] DVO msltel Скачать
1 | 0

28-11-2019 20:33  

Отключить всю рекламу на сайте


    Дорогой пользователь! Огромная просьба, поблагодарите релизера, оцените раздачу и оставьте свои комментарий, если Вы скачали Жанна-Дева - Битвы через торрент бесплатно! Внесите свою лепту в развитие PiratBit!
    Комментировать посты могут только пользователи прошедшие не сложную регистрацию
    Показать сообщения:    

    Жанна-Дева - Битвы через торрент
    Скачать бесплатно Жанна-Дева - Битвы
    Жанна-Дева - Битвы скачать торрент
    Жанна-Дева - Битвы смотреть онлайн
    Cкачать фильм Жанна-Дева - Битвы бесплатно
    Жанна-Дева - Битвы скачать торрент в хорошем качестве
    Жанна-Дева - Битвы смотреть онлайн бесплатно в хорошем качестве


    Вы не можете начинать темы
    Вы не можете отвечать на сообщения
    Вы не можете редактировать свои сообщения
    Вы не можете удалять свои сообщения
    Вы не можете голосовать в опросах
    Вы не можете прикреплять файлы к сообщениям
    Вы можете скачивать файлы