Доктор Стрэндж

Лицензия

Добыча

MVO

Дом дракона

1 сезон

Тор

Лицензия

Мэверик

Лицензия

Там, где раки поют

MVO

Властелин колец

1 сезон

Ultimate

pack

Рекомендуем

30

Repack

ВАЖНО

ВАЖНО

Ghostwire

RePack

jed

RePack

nioh2

RePack

RDR2

RePack

NEED FOR SPEED™ PAYBACK

RePack

скачать торрент

Кинопоиск HD

Острые козырьки 6 сезон

6 сезон

FAR CRY 6

RePack

скачать торрент

Лицензия

скачать торрент

MVO

1

1 сезон

скачать торрент

1 сезон

скачать торрент

Лицензия

  

Зайчик (Леонид Быков) [1964, СССР, комедия, SATRip от AVP Studio]

Зайчик через торрент piratbit.org

Раздают: 5 [ 0 KB/s ]
Размер: 1.09 GB | Добавлен: 2 года 8 мес. назад | Торрент скачан:38 раз
Смотреть онлайн | Скачать   

14-01-2020 09:51 Зайчик Скачать торрент  

Зайчик
Страна: СССР
Производство: Ленфильм

Жанр: комедия
Год выпуска: 1964
Продолжительность: 01:22:17

Перевод: Не требуется
Cубтитры: нет
Оригинальная аудиодорожка: русский

Режиссер: Леонид Быков


Леонид Быков, Ольга Красина, Игорь Горбачёв, Сергей Филиппов, Георгий Вицин, Алексей Смирнов, Игорь Дмитриев, Лев Степанов, Гликерия Богданова-Чеснокова, Алексей Кожевников...
Об актёрах подробней


Театральный гример Зайчик — скромный, честный и добрый человек — не может смириться с рутиной и бюрократизмом, царящими в театре. Поэтому Зайчик часто попадает в смешные и нелепые ситуации. Однако его упорству можно позавидовать.

Исходник: DVB
Качество видео: SATRip
Формат видео: AVI

Видео: 688x496 (1,419:1), 25,000 кадров/сек, XviD ~ 1694 kbps avg, 0.194 bit/pixel
Аудио: 48 kHz, Dolby Digital AC3 2.0, 192 kbps

Раздача от:
Общее
Полное имя : Zaychik.1964.SATRip_[New-team]_by_AVP_Studio.avi
Формат : AVI
Формат/Информация : Audio Video Interleave
Размер файла : 1,09 Гбайт
Продолжительность : 1 ч. 22 м.
Общий поток : 1896 Кбит/сек
Программа кодирования : VirtualDubMod 1.5.10.3 | www.virtualdub-fr.org || (build 2550/release)
Библиотека кодирования : VirtualDubMod build 2550/release

Видео
Идентификатор : 0
Формат : MPEG-4 Visual
Профиль формата : Advanced Simple@L5
Настройки формата : BVOP1 / Custom Matrix
Параметр BVOP формата : 1
Параметр QPel формата : Нет
Параметр GMC формата : Без точки перехода
Параметр матрицы формата : Выборочная
Идентификатор кодека : XVID
Идентификатор кодека/Подсказка : XviD
Продолжительность : 1 ч. 22 м.
Битрейт : 1694 Кбит/сек
Ширина : 704 пикселя
Высота : 496 пикселей
Соотношение сторон : 1,419
Частота кадров : 25,000 кадров/сек
Цветовое пространство : YUV
Субдискретизация насыщенности : 4:2:0
Битовая глубина : 8 бит
Тип развёртки : Прогрессивная
Метод сжатия : С потерями
Бит/(Пиксели*Кадры) : 0.194
Размер потока : 997 Мбайт (89%)
Библиотека кодирования : XviD 73

Аудио
Идентификатор : 1
Формат : AC-3
Формат/Информация : Audio Coding 3
Коммерческое название : Dolby Digital
Идентификатор кодека : 2000
Продолжительность : 1 ч. 22 м.
Вид битрейта : Постоянный
Битрейт : 192 Кбит/сек
Каналы : 2 канала
ChannelLayout : L R
Частота : 48,0 КГц
Частота кадров : 31,250 кадров/сек (1536 SPF)
Битовая глубина : 16 бит
Метод сжатия : С потерями
Размер потока : 113 Мбайт (10%)
Выравнивание : Разделение по промежуткам
Продолжительность промежутка : 40 мс. (1,00 видеокадр)
Время предзагрузки промежутка : 500 мс



Скачать Зайчик через торрент http://d.radikal.ru/d17/2001/6c/795b7a1361da.png Скачать, смотреть онлайн Зайчик бесплантно в хорошем качестве Год выпуска: 1964Продолжительность: 01:22:17Перевод: Не требуетсяCубтитры: нетОригинальная аудиодорожка: русскийРежиссер: Леонид ... 5 10 1
Торрент: Зарегистрирован [2020-01-14 09:51] · скачан: 38 раз
Статус: √ проверено
Размер: 1.09 GB
Как cкачать? Как скачать Зайчик через торрент | UTorrent

% Раздел Тема Автор DL S | L
Кино СССР [ 1.09 GB ] Зайчик | | SATRip-AVC от AVP Studio AVP Studio Скачать
2 | 0
Кино СССР [ 1.42 GB ] Зайчик | | DVDRip DJERG Скачать
1 | 0

28-11-2019 20:33  


Отключить вcю реклaмy на сайте, в т.ч. и в плеере онлайн просмотра!

    Дорогой пользователь! Огромная просьба, поблагодарите релизера, оцените раздачу и оставьте свои комментарий, если Вы скачали Зайчик через торрент бесплатно!!
    Комментировать посты могут только пользователи прошедшие не сложную регистрацию
    Показать сообщения:    


    Зайчик через торрент
    Скачать бесплатно Зайчик
    Зайчик скачать торрент
    Зайчик смотреть онлайн
    Cкачать фильм Зайчик бесплатно
    Зайчик скачать торрент в хорошем качестве
    Зайчик смотреть онлайн бесплатно в хорошем качестве
    Вы не можете начинать темы
    Вы не можете отвечать на сообщения
    Вы не можете редактировать свои сообщения
    Вы не можете удалять свои сообщения
    Вы не можете голосовать в опросах
    Вы не можете прикреплять файлы к сообщениям
    Вы можете скачивать файлы