Лицензия

MVO

1

1 сезон

Лицензия

Лицензия

13

MVO

1 сезон

Deluxe Edition

pack

Рекомендуем

30

Repack

ВАЖНО

ВАЖНО

Ghostwire

RePack

jed

RePack

fifa19

RePack

RDR2

RePack

NEED FOR SPEED™ PAYBACK

RePack

Кинопоиск HD

 Острые козырьки 6 сезон

6 сезон

FAR CRY 6

RePack

Лицензия

MVO

1

1 сезон

1 сезон

Лицензия

  

Жили-были старик со старухой (Григорий Чухрай) [1964, СССР, драма, SATRip-AVC от AVP Studio]

Жили-были старик со старухой через торрент piratbit.org

Качают: 4 [ 0 KB/s ]
Размер: 1.46 GB | Добавлен: 2 года 8 мес. назад | Торрент скачан:31 раз
Смотреть онлайн Жили-были старик со старухой | Скачать   

15-01-2020 10:10 Жили-были старик со старухой Скачать торрент  

Жили-были старик со старухой
Страна: СССР
Производство: Мосфильм

Жанр: драма
Год выпуска: 1964
Продолжительность: 02:11:57 (01:05:58 + 01:05:59)

Перевод: Не требуется
Cубтитры: нет
Оригинальная аудиодорожка: русский

Режиссер: Григорий Чухрай


Иван Марин, Вера Кузнецова, Георгий Мартынюк, Людмила Максакова, Галина Польских, Анатолий Яббаров, Виктор Колпаков, Николай Крючков, Гиули Чохонелидзе, Николай Сергеев, Леночка Державина, Агнесса Петерсон...
Об актёрах подробней


Киноповесть о двух стариках-пенсионерах, которые после пожара остались на старости лет без крова. Строиться заново не захотели. Думали было отправиться к одному из благополучных сыновей — но поехали в далекое Заполярье, к непутевой и неустроенной дочери…

Исходник: DVB
Качество видео: SATRip-AVC
Формат видео: MKV

Видео: 688->763x572 (4:3), 25,000 кадров/сек, H264 ~ 1389 kbps avg, 0.141 bit/pixel
Аудио: 48 kHz, Dolby Digital AC3 2.0, 192 kbps

Раздача от:
Общее
Полное имя : ZHili-byli.starik.so.staruhoy.1964.SATRip-AVC_[New-team]_by_AVP_Studio.mkv
Формат : Matroska
Версия формата : Version 2
Размер файла : 747 Мбайт
Продолжительность : 1 ч. 5 м.
Общий поток : 1583 Кбит/сек
Дата кодирования : UTC 2020-01-13 21:24:31
Программа кодирования : mkvmerge v6.1.0 ('Old Devil') built on Mar 4 2013 09:10:42
Библиотека кодирования : libebml v1.3.0 + libmatroska v1.4.0

Видео
Идентификатор : 1
Формат : AVC
Формат/Информация : Advanced Video Codec
Профиль формата : High@L4.1
Настройки формата : CABAC / 10 Ref Frames
Параметр CABAC формата : Да
Параметр RefFrames формата : 10 кадров
Идентификатор кодека : V_MPEG4/ISO/AVC
Продолжительность : 1 ч. 5 м.
Битрейт : 1389 Кбит/сек
Ширина : 688 пикселей
Высота : 572 пикселя
Соотношение сторон : 4:3
Режим частоты кадров : Постоянный
Частота кадров : 25,000 кадров/сек
Цветовое пространство : YUV
Субдискретизация насыщенности : 4:2:0
Битовая глубина : 8 бит
Тип развёртки : Прогрессивная
Бит/(Пиксели*Кадры) : 0.141
Размер потока : 641 Мбайт (86%)
Библиотека кодирования : x264 core 159 r2991 1771b55
Настройки программы : cabac=1 / ref=10 / deblock=1:-2:-1 / analyse=0x3:0x113 / me=umh / subme=10 / psy=1 / psy_rd=1.00:0.00 / mixed_ref=1 / me_range=32 / chroma_me=1 / trellis=2 / 8x8dct=1 / cqm=0 / deadzone=21,11 / fast_pskip=1 / chroma_qp_offset=-2 / threads=6 / lookahead_threads=1 / sliced_threads=0 / nr=0 / decimate=0 / interlaced=0 / bluray_compat=0 / constrained_intra=0 / bframes=8 / b_pyramid=2 / b_adapt=2 / b_bias=0 / direct=3 / weightb=1 / open_gop=0 / weightp=2 / keyint=250 / keyint_min=25 / scenecut=40 / intra_refresh=0 / rc=2pass / mbtree=0 / bitrate=1389 / ratetol=1.0 / qcomp=0.60 / qpmin=0 / qpmax=69 / qpstep=4 / cplxblur=20.0 / qblur=0.5 / ip_ratio=1.40 / pb_ratio=1.30 / aq=1:1.00
Default : Да
Forced : Нет

Аудио
Идентификатор : 2
Формат : AC-3
Формат/Информация : Audio Coding 3
Коммерческое название : Dolby Digital
Идентификатор кодека : A_AC3
Продолжительность : 1 ч. 5 м.
Вид битрейта : Постоянный
Битрейт : 192 Кбит/сек
Каналы : 2 канала
ChannelLayout : L R
Частота : 48,0 КГц
Частота кадров : 31,250 кадров/сек (1536 SPF)
Битовая глубина : 16 бит
Метод сжатия : С потерями
Размер потока : 90,6 Мбайт (12%)
Default : Да
Forced : Нет



Скачать Жили-были старик со старухой через торрент http://d.radikal.ru/d02/2001/8c/b54460100a6e.png Скачать, смотреть онлайн Жили-были старик со старухой бесплантно в хорошем качестве Год выпуска: 1964Продолжительность: 02:11:57 (01:05:58 + 01:05:59)Перевод: Не требуетсяCубтитры: нетОригинальная аудиодорожка: ... 10 10 1
Торрент: Зарегистрирован [2020-01-15 10:10] · скачан: 31 раз
Статус: √ проверено
Размер: 1.46 GB
Как cкачать? Как скачать Жили-были старик со старухой через торрент | UTorrent

% Раздел Тема Автор DL S | L
Кино СССР [ 1.45 GB ] Жили-были старик со старухой | | SATRip от AVP Studio AVP Studio Скачать
4 | 0

28-11-2019 20:33  

Отключить вcю реклaмy на сайте

    Дорогой пользователь! Огромная просьба, поблагодарите релизера, оцените раздачу и оставьте свои комментарий, если Вы скачали Жили-были старик со старухой через торрент бесплатно!!
    Комментировать посты могут только пользователи прошедшие не сложную регистрацию
    Показать сообщения:    


    Жили-были старик со старухой через торрент
    Скачать бесплатно Жили-были старик со старухой
    Жили-были старик со старухой скачать торрент
    Жили-были старик со старухой смотреть онлайн
    Cкачать фильм Жили-были старик со старухой бесплатно
    Жили-были старик со старухой скачать торрент в хорошем качестве
    Жили-были старик со старухой смотреть онлайн бесплатно в хорошем качестве
    Вы не можете начинать темы
    Вы не можете отвечать на сообщения
    Вы не можете редактировать свои сообщения
    Вы не можете удалять свои сообщения
    Вы не можете голосовать в опросах
    Вы не можете прикреплять файлы к сообщениям
    Вы можете скачивать файлы