Достать ножи: Стеклянная луковица

MVO

Добыча

Дубляж

Уэнсдэй

1 сезон

Тор

Дубляж

13 клиническая

1 сезон

Жестокая ночь

MVO

Одни из нас

1 сезон

Deluxe

pack

Рекомендуем

30

Пиратка

ВАЖНО

ВАЖНО

Ghostwire

Пиратка

jed

RePack

nioh2

RePack

RDR2

RePack

NEED FOR SPEED™ PAYBACK

RePack

скачать торрент

Кинопоиск HD

Острые козырьки 6 сезон

6 сезон

FAR CRY 6

RePack

скачать торрент

Лицензия

скачать торрент

MVO

1

1 сезон

скачать торрент

1 сезон

скачать торрент

Лицензия

  

Книга джунглей / The Jungle Book (Джон Фавро) [2016, Фэнтези, драма, приключения, семейный, UHD BDRip 2160p, (SDR)] Дубляж [Лицензия] +AVO [Ю.Сербин]

Книга джунглей через торрент piratbit.org

Размер: 27.64 GB | Добавлен: 3 года назад | Торрент скачан:21 раз
Смотреть онлайн | Скачать | Поддержите нас   

15-01-2020 17:27 Книга джунглей Скачать торрент  

Книга джунглей / The Jungle Book
Год выпуска: 2016
Страна: Великобритания, США
Студия: Walt Disney Pictures
Жанр: Фэнтези, драма, приключения, семейный
Продолжительность: 01:45:54
Перевод:
#1: Дублированный | Лицензия
#2: Авторский | Юрий Сербин
Субтитры: Русские, английские, украинские

Режиссер: Джон Фавро

rating

В ролях:

Нил Сетхи (Mowgli), Билл Мюррей (Baloo, озвучка), Бен Кингсли (Bagheera, озвучка), Идрис Эльба (Shere Khan, озвучка), Лупита Нионго (Raksha, озвучка), Скарлетт Йоханссон (Kaa, озвучка), Джанкарло Эспозито (Akela, озвучка), Кристофер Уокен (King Louie, озвучка), Гарри Шендлинг (Ikki, озвучка), Брайтон Роуз (Gray, озвучка), Эмджей Энтони (Young Wolf #1, озвучка), Макс Фавро (Young Wolf #2, озвучка)
Описание: Непримиримая борьба с опасным и страшным тигром Шерханом вынуждает Маугли покинуть волчью стаю и отправиться в деревню к людям. На пути мальчика ждут удивительные открытия и захватывающие приключения с пантерой Багирой, медведем Балу, питоном Каа и другими обитателями дремучих джунглей.

Качество: UHD BDRip 2160p
Формат: MKV

Видео: HEVC SDR, 35.0 Mбит/с, 3840x2076, 23.976 кадр/с, 10 бит
Аудио#01: 48 kHz, AC3, 5.1, 640 Kbps | Лицензия | RUS |
Аудио#02: 48 kHz, AC3, 5.1, 448 Kbps | Авторский | RUS |
Аудио#03: 48 kHz, AC3, 5.1, 640 Kbps | Дублированный | UKR |
Аудио#04: 48 kHz, AC3, 5.1, 640 Kbps | Оригинал | ENG |
скриншот  скриншот  скриншот  скриншот  скриншот  

Общее
Уникальный идентификатор : 233552392556802206916762058894234545596 (0xAFB48DFCF138D4B5A56BD71F3156EDBC)
Полное имя : G:\The.Jungle.Book.2016.2160p.BDRip.x265.10bit.SDR.Master5.mkv
Формат : Matroska
Версия формата : Version 4
Размер файла : 27,6 Гбайт
Продолжительность : 1 ч. 45 м.
Общий поток : 37,4 Мбит/сек
Название фильма : The.Jungle.Book.2016.2160p.BDRip.x265.10bit.SDR.Master5
Дата кодирования : UTC 2020-01-15 15:47:17
Программа кодирования : mkvmerge v7.9.0 ('Birds') 64bit
Библиотека кодирования : libebml v1.3.1 + libmatroska v1.4.2
Обложка : Yes
Attachments : small_cover.jpg / small_cover_land.jpg / cover.jpg / cover_land.jpg

Видео
Идентификатор : 1
Формат : HEVC
Формат/Информация : High Efficiency Video Coding
Профиль формата : Main 10@L5.1@High
Идентификатор кодека : V_MPEGH/ISO/HEVC
Продолжительность : 1 ч. 45 м.
Битрейт : 35,0 Мбит/сек
Ширина : 3840 пикселей
Высота : 2076 пикселей
Соотношение сторон : 1,85:1
Режим частоты кадров : Постоянный
Частота кадров : 23,976 (24000/1001) кадра/сек
Цветовое пространство : YUV
Субдискретизация насыщенности : 4:2:0
Битовая глубина : 10 бит
Бит/(Пиксели*Кадры) : 0.183
Размер потока : 25,9 Гбайт (94%)
Заголовок : The.Jungle.Book.2016.2160p.BDRip.x265.10bit.SDR.Master5
Библиотека кодирования : x265 3.0+1-ed72af837053:[Windows][GCC 8.2.0][64 bit] 10bit
Настройки программы : cpuid=1111039 / frame-threads=16 / numa-pools=40 / wpp / no-pmode / no-pme / no-psnr / no-ssim / log-level=2 / input-csp=1 / input-res=3840x2076 / interlace=0 / total-frames=152351 / level-idc=51 / high-tier=1 / uhd-bd=0 / ref=3 / no-allow-non-conformance / repeat-headers / annexb / aud / hrd / info / hash=0 / no-temporal-layers / no-open-gop / min-keyint=1 / keyint=24 / gop-lookahead=0 / bframes=4 / b-adapt=2 / b-pyramid / bframe-bias=0 / rc-lookahead=25 / lookahead-slices=4 / scenecut=40 / radl=0 / no-splice / no-intra-refresh / ctu=64 / min-cu-size=8 / no-rect / no-amp / max-tu-size=32 / tu-inter-depth=1 / tu-intra-depth=1 / limit-tu=0 / rdoq-level=0 / dynamic-rd=0.00 / no-ssim-rd / signhide / no-tskip / nr-intra=0 / nr-inter=0 / no-constrained-intra / strong-intra-smoothing / max-merge=2 / limit-refs=3 / no-limit-modes / me=1 / subme=2 / merange=57 / temporal-mvp / weightp / no-weightb / no-analyze-src-pics / deblock=0:0 / no-sao / no-sao-non-deblock / rd=3 / no-early-skip / rskip / no-fast-intra / no-tskip-fast / no-cu-lossless / no-b-intra / no-splitrd-skip / rdpenalty=0 / psy-rd=2.00 / psy-rdoq=0.00 / no-rd-refine / no-lossless / cbqpoffs=0 / crqpoffs=0 / rc=crf / crf=16.0 / qcomp=0.60 / qpstep=4 / stats-write=0 / stats-read=0 / vbv-maxrate=160000 / vbv-bufsize=160000 / vbv-init=0.9 / crf-max=0.0 / crf-min=0.0 / ipratio=1.40 / pbratio=1.30 / aq-mode=1 / aq-strength=1.00 / cutree / zone-count=0 / no-strict-cbr / qg-size=32 / no-rc-grain / qpmax=69 / qpmin=0 / no-const-vbv / sar=1 / overscan=0 / videoformat=5 / range=0 / colorprim=2 / transfer=2 / colormatrix=2 / chromaloc=0 / display-window=0 / max-cll=0,0 / min-luma=0 / max-luma=1023 / log2-max-poc-lsb=8 / vui-timing-info / vui-hrd-info / slices=1 / opt-qp-pps / opt-ref-list-length-pps / no-multi-pass-opt-rps / scenecut-bias=0.05 / no-opt-cu-delta-qp / no-aq-motion / no-hdr / no-hdr-opt / no-dhdr10-opt / no-idr-recovery-sei / analysis-reuse-level=5 / scale-factor=0 / refine-intra=0 / refine-inter=0 / refine-mv=0 / refine-ctu-distortion=0 / no-limit-sao / ctu-info=0 / no-lowpass-dct / refine-analysis-type=0 / copy-pic=1 / max-ausize-factor=1.0 / no-dynamic-refine / no-single-sei / no-hevc-aq / qp-adaptation-range=1.00
Default : Да
Forced : Нет

Аудио #1
Идентификатор : 2
Формат : AC-3
Формат/Информация : Audio Coding 3
Коммерческое название : Dolby Digital
Идентификатор кодека : A_AC3
Продолжительность : 1 ч. 45 м.
Вид битрейта : Постоянный
Битрейт : 640 Кбит/сек
Каналы : 6 каналов
Channel layout : L R C LFE Ls Rs
Частота : 48,0 КГц
Частота кадров : 31,250 кадров/сек (1536 SPF)
Битовая глубина : 16 бит
Метод сжатия : С потерями
Размер потока : 485 Мбайт (2%)
Заголовок : Дубляж
Язык : Russian
ServiceKind/String : Complete Main
Default : Да
Forced : Нет

Аудио #2
Идентификатор : 3
Формат : AC-3
Формат/Информация : Audio Coding 3
Коммерческое название : Dolby Digital
Идентификатор кодека : A_AC3
Продолжительность : 1 ч. 45 м.
Вид битрейта : Постоянный
Битрейт : 448 Кбит/сек
Каналы : 6 каналов
Channel layout : L R C LFE Ls Rs
Частота : 48,0 КГц
Частота кадров : 31,250 кадров/сек (1536 SPF)
Битовая глубина : 16 бит
Метод сжатия : С потерями
Размер потока : 339 Мбайт (1%)
Заголовок : Сербин
Язык : Russian
ServiceKind/String : Complete Main
Default : Нет
Forced : Нет

Аудио #3
Идентификатор : 4
Формат : AC-3
Формат/Информация : Audio Coding 3
Коммерческое название : Dolby Digital
Идентификатор кодека : A_AC3
Продолжительность : 1 ч. 45 м.
Вид битрейта : Постоянный
Битрейт : 640 Кбит/сек
Каналы : 6 каналов
Channel layout : L R C LFE Ls Rs
Частота : 48,0 КГц
Частота кадров : 31,250 кадров/сек (1536 SPF)
Битовая глубина : 16 бит
Метод сжатия : С потерями
Размер потока : 485 Мбайт (2%)
Заголовок : Дубляж
Язык : Ukrainian
ServiceKind/String : Complete Main
Default : Нет
Forced : Нет

Аудио #4
Идентификатор : 5
Формат : AC-3
Формат/Информация : Audio Coding 3
Коммерческое название : Dolby Digital
Идентификатор кодека : A_AC3
Продолжительность : 1 ч. 45 м.
Вид битрейта : Постоянный
Битрейт : 640 Кбит/сек
Каналы : 6 каналов
Channel layout : L R C LFE Ls Rs
Частота : 48,0 КГц
Частота кадров : 31,250 кадров/сек (1536 SPF)
Битовая глубина : 16 бит
Метод сжатия : С потерями
Размер потока : 485 Мбайт (2%)
Заголовок : Original
Язык : English
ServiceKind/String : Complete Main
Default : Нет
Forced : Нет

Текст #1
Идентификатор : 6
Формат : UTF-8
Идентификатор кодека : S_TEXT/UTF8
Идентификатор кодека/Информация : UTF-8 Plain Text
Продолжительность : 1 ч. 44 м.
Битрейт : 0 бит/сек
ElementCount : 4
Размер потока : 193 байт (0%)
Заголовок : Форсированные
Язык : Russian
Default : Да
Forced : Нет

Текст #2
Идентификатор : 7
Формат : UTF-8
Идентификатор кодека : S_TEXT/UTF8
Идентификатор кодека/Информация : UTF-8 Plain Text
Продолжительность : 1 ч. 44 м.
Битрейт : 60 бит/сек
ElementCount : 1108
Размер потока : 46,2 Кбайт (0%)
Заголовок : Полные
Язык : Russian
Default : Нет
Forced : Нет

Текст #3
Идентификатор : 8
Формат : UTF-8
Идентификатор кодека : S_TEXT/UTF8
Идентификатор кодека/Информация : UTF-8 Plain Text
Продолжительность : 1 ч. 44 м.
Битрейт : 59 бит/сек
ElementCount : 1107
Размер потока : 45,5 Кбайт (0%)
Заголовок : Полные
Язык : Ukrainian
Default : Нет
Forced : Нет

Текст #4
Идентификатор : 9
Формат : UTF-8
Идентификатор кодека : S_TEXT/UTF8
Идентификатор кодека/Информация : UTF-8 Plain Text
Продолжительность : 1 ч. 44 м.
Битрейт : 44 бит/сек
ElementCount : 1218
Размер потока : 34,1 Кбайт (0%)
Заголовок : Full
Язык : English
Default : Нет
Forced : Нет

Текст #5
Идентификатор : 10
Формат : UTF-8
Идентификатор кодека : S_TEXT/UTF8
Идентификатор кодека/Информация : UTF-8 Plain Text
Продолжительность : 1 ч. 44 м.
Битрейт : 50 бит/сек
ElementCount : 1410
Размер потока : 38,4 Кбайт (0%)
Заголовок : SDH
Язык : English
Default : Нет
Forced : Нет

Меню
00:00:00.000 : : 1. Opening Title
00:00:48.213 : : 2. Running with Wolves
00:05:15.314 : : 3. Water Truce
00:09:02.456 : : 4. A Warning
00:12:42.177 : : 5. Mowgli Leaves the Pack
00:16:34.451 : : 6. Shere Khan Attacks
00:21:20.028 : : 7. Akela's Plea
00:27:15.133 : : 8. Kaa
00:35:04.143 : : 9. Baloo's Honey
00:43:21.724 : : 10. The Mowgli Way
00:48:05.132 : : 11. "The Bare Necessities"
00:53:29.246 : : 12. Saving the Elephant
00:58:03.271 : : 13. Monkey Abduction
01:05:46.442 : : 14. "I Wan'na Be Like You"
01:10:35.520 : : 15. Monkey Escape
01:17:01.323 : : 16. The Red Flower
01:20:48.926 : : 17. The Law of the Jungle
01:24:46.537 : : 18. The Final Battle
01:30:32.969 : : 19. Celebration
01:35:53.203 : : 20. End Credits




Скачать Книга джунглей через торрент https://img15.lostpic.net/2020/01/10/3fd58a7bb87542365403a724740d97f7.jpg Скачать, смотреть онлайн Книга джунглей бесплантно в хорошем качестве Описание: Непримиримая борьба с опасным и страшным тигром Шерханом вынуждает Маугли покинуть волчью стаю и отправиться в деревню к людям. ... 10 10 2
Торрент: Зарегистрирован [2020-01-15 17:27] · скачан: 21 раз
Статус: √ проверено
Размер: 27.64 GB
Как cкачать? Как скачать Книга джунглей через торрент | UTorrent

% Раздел Тема Автор DL S | L
3D Фильмы [ 6.63 GB ] Книга джунглей 3D / The Jungle Book in 3D | Дубляж | 1080p, Дубляж slaventi-69 Скачать
1 | 0
Фильмы [HD 720p, 1080p] (Хороший звук DUB, MVO) [ 11.82 GB ] Книга джунглей / The Jungle Book | Лицензия | 1080p, Дубляж [Лицензия smaster Скачать
1 | 0
Фильмы 2016 [DVDrip, WEB-DLRip, HDrip] (DUB, MVO) [ 1.41 GB ] Книга джунглей / The Jungle Book | iTunes | BDRip , Дубляж Twi7ter Скачать
1 | 0
Фильмы 2016 [DVDrip, WEB-DLRip, HDrip] (DUB, MVO) [ 2.18 GB ] Книга джунглей / The Jungle Book | Дубляж "BD CEE" | HDRip, Дубляж "BD CEE" coc900 Скачать
1 | 0
Фильмы 2016 [DVDrip, WEB-DLRip, HDrip] (DUB, MVO) [ 1.46 GB ] Книга джунглей / The Jungle Book | Лицензия | BDRip , Дубляж - [Лицензия Twi7ter Скачать
1 | 0
R.G. Resident & PiratVoice - Фильмы, Видео [ 1.42 GB ] Книга джунглей / The Jungle Book | iTunes R.G.Resident | BDRip-AVC, Дубляж White Smoke Скачать
1 | 0
R.G. Resident & PiratVoice - Фильмы, Видео [ 2.72 GB ] Книга джунглей / The Jungle Book | iTunes R.G.Resident | BDRip-AVC, Дубляж Хорват Скачать
1 | 0

28-11-2019 20:33  


Отключить вcю реклaмy на сайте, в т.ч. и в плеере онлайн просмотра!

    Дорогой пользователь! Огромная просьба, поблагодарите релизера, оцените раздачу и оставьте свои комментарий, если Вы скачали Книга джунглей через торрент бесплатно!!
    Комментировать посты могут только пользователи прошедшие не сложную регистрацию
    Показать сообщения:    


    Книга джунглей через торрент
    Скачать бесплатно Книга джунглей
    Книга джунглей скачать торрент
    Книга джунглей смотреть онлайн
    Cкачать фильм Книга джунглей бесплатно
    Книга джунглей скачать торрент в хорошем качестве
    Книга джунглей смотреть онлайн бесплатно в хорошем качестве
    Вы не можете начинать темы
    Вы не можете отвечать на сообщения
    Вы не можете редактировать свои сообщения
    Вы не можете удалять свои сообщения
    Вы не можете голосовать в опросах
    Вы не можете прикреплять файлы к сообщениям
    Вы можете скачивать файлы
    Книга джунглей / The Jungle Book [2016, Фэнтези, драма, приключения, семейный, UHD BDRip 2160p, ] Дубляж [Лицензия] +AVO [Ю.Сербин] смотреть онлайн, скачать торрент picoco.icu