Ссылка на приватное зеркало всего за 1$. Внимание количество ограничено!!!

iTunes

iTunes

iTunes

1

iTunes

iTunes

iTunes

iTunes

iTunes

30
pack

Новость дня

ВАЖНО

!!Акция!!

Alien_RageХит недели

RePack

Resident Evil 21

ИГРА 18+

pack

RePack

jed

!!Акция!!

Alien_Rage

RePack

fifa19

RePack

Assassins Creed: Odyssey

RePack

NEED FOR SPEED™ PAYBACK

4 сезон

9 сезон

Бесстыжие 9 сезон

Все сериалы

все сериалы на PB.wtf

RePack

FAR CRY 5
  

Закон и порядок / Law and Order (Натан Юран) [1953 г., Приключения, драма, вестерн, мелодрама, боевик, HDRip] MVO piratbit.org

Закон и порядок через торрент piratbit.org

Размер: 391 MB | Добавлен: 2 мес. 18 д. назад | Торрент скачан:3 раза
Скачать  

16-01-2020 09:17 Закон и порядок Скачать торрент  

Закон и порядок
Law and Order
Год выпуска: 1953
Страна: США
Жанр: Приключения, драма, вестерн, мелодрама, боевик
Продолжительность: 01:19:51
Перевод: Профессиональный (многоголосый) - Светла
Субтитры: Английские

Режиссер: Натан Юран

Бюджет: $1 000 000
Премьера в мире: 13 мая 1953

rating

В ролях: Рональд Рейган, Дороти Мэлоун, Престон Фостер, Алекс Николь, Рут Хэмптон, Расселл Джонсон, Бэрри Келли, Чабби Джонсон, Джек Келли, Лэйн Чандлер, Гарри Кординг, Дэннис Уивер, Уолли Кассел, Ричард Гаррик, Сэм Флинт, Холли Бэйн, Грегг Бартон, Стэнли Блистоун, Лэйн Брэдфорд, Ральф Брукс

Описание: 1882 год. Аризона. США. Шериф Фройм Джонсон зорко следит за нарушителями закона на вверенной ему территории — здесь правят закон и порядок. В один из дней он ловит известного преступника по кличке Дуранго Кид и сажает его в тюрьму, чтобы судить по закону. Но, возмущенные жители городка, требуют линчевать пойманного злодея без суда и следствия....

Доп. информация: Для корректной работы установите MX Player и просматривайте через данный плеер

Качество: HDRip
Формат: MP4
Видео кодек: H.264
Аудио кодек: AAC
Видео: 560x408 (1.37:1), 23.976 fps, AVC ~550 kbps avg, 0.10 bit/pixel
Аудио#1: 48 kHz, AAC LC, 2 ch, ~64.00 kbps avg - RUS
Аудио#2: 48 kHz, AAC LC, 2 ch, ~64.00 kbps avg - ENG
Релиз от:





General
Complete name : D:\Закон и порядок.1953.HDRip-КПК by.ExKinoRay.mp4
Format : MPEG-4
Format profile : Base Media
Codec ID : isom (isom)
File size : 391 MiB
Duration : 1 h 19 min
Overall bit rate mode : Variable
Overall bit rate : 684 kb/s
Encoded date : UTC 2020-01-16 06:49:05
Tagged date : UTC 2020-01-16 06:49:05

Video
ID : 1
Format : AVC
Format/Info : Advanced Video Codec
Format profile : High@L4.1
Format settings : CABAC / 10 Ref Frames
Format settings, CABAC : Yes
Format settings, Reference : 10 frames
Codec ID : avc1
Codec ID/Info : Advanced Video Coding
Duration : 1 h 19 min
Bit rate : 550 kb/s
Maximum bit rate : 1 358 kb/s
Width : 560 pixels
Height : 408 pixels
Display aspect ratio : 1.373
Frame rate mode : Constant
Frame rate : 23.976 (24000/1001) FPS
Original frame rate : 23.976 (23976/1000) FPS
Color space : YUV
Chroma subsampling : 4:2:0
Bit depth : 8 bits
Scan type : Progressive
Bits/(Pixel*Frame) : 0.100
Stream size : 314 MiB (80%)
Writing library : x264 core 146 r2538 121396c
Encoding settings : cabac=1 / ref=10 / deblock=1:-3:-3 / analyse=0x3:0x113 / me=umh / subme=11 / psy=1 / psy_rd=1.00:0.00 / mixed_ref=1 / me_range=48 / chroma_me=1 / trellis=2 / 8x8dct=1 / cqm=0 / deadzone=21,11 / fast_pskip=0 / chroma_qp_offset=-2 / threads=3 / lookahead_threads=1 / sliced_threads=0 / nr=0 / decimate=0 / interlaced=0 / bluray_compat=0 / constrained_intra=0 / bframes=10 / b_pyramid=2 / b_adapt=2 / b_bias=0 / direct=3 / weightb=1 / open_gop=0 / weightp=2 / keyint=240 / keyint_min=23 / scenecut=40 / intra_refresh=0 / rc_lookahead=40 / rc=2pass / mbtree=0 / bitrate=550 / ratetol=1.0 / qcomp=0.60 / qpmin=0 / qpmax=69 / qpstep=4 / cplxblur=20.0 / qblur=0.5 / vbv_maxrate=14000 / vbv_bufsize=14000 / nal_hrd=none / filler=0 / ip_ratio=1.40 / pb_ratio=1.30 / aq=1:1.00
Encoded date : UTC 2020-01-15 19:34:38
Tagged date : UTC 2020-01-16 06:50:33
Codec configuration box : avcC

Audio #1
ID : 2
Format : AAC LC
Format/Info : Advanced Audio Codec Low Complexity
Codec ID : mp4a-40-2
Duration : 1 h 19 min
Bit rate mode : Variable
Bit rate : 64.0 kb/s
Maximum bit rate : 74.9 kb/s
Channel(s) : 2 channels
Channel layout : L R
Sampling rate : 48.0 kHz
Frame rate : 46.875 FPS (1024 SPF)
Compression mode : Lossy
Stream size : 36.6 MiB (9%)
Title : Светла
Language : Russian
Encoded date : UTC 2020-01-16 06:38:44
Tagged date : UTC 2020-01-16 06:50:33

Audio #2
ID : 3
Format : AAC LC
Format/Info : Advanced Audio Codec Low Complexity
Codec ID : mp4a-40-2
Duration : 1 h 19 min
Bit rate mode : Variable
Bit rate : 64.0 kb/s
Maximum bit rate : 67.8 kb/s
Channel(s) : 2 channels
Channel layout : L R
Sampling rate : 48.0 kHz
Frame rate : 46.875 FPS (1024 SPF)
Compression mode : Lossy
Stream size : 36.6 MiB (9%)
Language : English
Encoded date : UTC 2020-01-16 06:32:44
Tagged date : UTC 2020-01-16 06:50:33

Text
ID : 4
Format : Timed Text
Codec ID : tx3g
Duration : 1 h 19 min
Bit rate mode : Variable
Bit rate : 75 b/s
Stream size : 43.4 KiB (0%)
Language : English
Forced : No
Encoded date : UTC 2020-01-16 06:50:33
Tagged date : UTC 2020-01-16 06:50:33

piratbit.org



Скачать Закон и порядок через торрент https://img16.lostpic.net/2020/01/15/03b1b6b011ea489fcce96d017a2f5f9d.png Скачать фильм Закон и порядок через торрент бесплантно в хорошем качестве Описание: 1882 год. Аризона. США. Шериф Фройм Джонсон зорко следит за нарушителями закона на вверенной ему территории — здесь правят закон ... 10 10 1
Info! Золотая раздача, скачанное не засчитывается.
Торрент: Зарегистрирован [2020-01-16 09:17] · скачан: 3 раз
Статус: √ проверено
Размер: 391 MB
Как cкачать? Как скачать Закон и порядок через торрент | qTorrent

28-11-2019 20:33  

Отключить всю рекламу на сайте

    Дорогой пользователь! Огромная просьба, поблагодарите релизера, оцените раздачу и оставьте свои комментарий, если Вы скачали Закон и порядок через торрент бесплатно! Внесите свою лепту в развитие PiratBit!
    Комментировать посты могут только пользователи прошедшие не сложную регистрацию
    Показать сообщения:    

    Закон и порядок через торрент
    Скачать бесплатно Закон и порядок
    Закон и порядок скачать торрент
    Закон и порядок смотреть онлайн
    Cкачать фильм Закон и порядок бесплатно
    Закон и порядок скачать торрент в хорошем качестве
    Закон и порядок смотреть онлайн бесплатно в хорошем качестве


    Вы не можете начинать темы
    Вы не можете отвечать на сообщения
    Вы не можете редактировать свои сообщения
    Вы не можете удалять свои сообщения
    Вы не можете голосовать в опросах
    Вы не можете прикреплять файлы к сообщениям
    Вы можете скачивать файлы