Ссылка на приватное зеркало всего за 1$. Внимание количество ограничено!!!

iTunes

iTunes

iTunes

1

iTunes

iTunes

iTunes

WEBRip

iTunes

30
pack

$ от Little Big

ВАЖНО

!!Акция!!

Alien_RageХит недели

RePack

Resident Evil 21

ИГРА 18+

pack

RePack

jed

!!Акция!!

Alien_Rage

RePack

fifa19

RePack

Assassins Creed: Odyssey

RePack

NEED FOR SPEED™ PAYBACK

4 сезон

9 сезон

Бесстыжие 9 сезон

Все сериалы

все сериалы на PB.wtf

RePack

FAR CRY 5
  

Жанна-Дева - Тюрьмы / Jeanne la Pucelle II - Les prisons (Жак Риветт) [1994, драма, биография, история, BDRip 720p by msltel] DVO piratbit.org

Жанна-Дева - Тюрьмы через торрент piratbit.org

Размер: 7.81 GB | Добавлен: 6 мес. назад | Торрент скачан:9 раз
Скачать  

16-01-2020 09:37 Жанна-Дева - Тюрьмы Скачать торрент  

Название: Жанна-Дева – Тюрьмы
Оригинальное название: Jeanne la Pucelle II - Les prisons
Год выпуска: 1994
Страна: Франция
Жанр: драма, биография, история
Продолжительность: 02:56:28
Перевод: профессиональный двухголосый
Режиссер: Жак Риветт
В ролях: Сандрин Боннэр, Марсель Бозонне, Брюно Волкович, Андре Маркон, Жан-Луи Ришар, Патрик Ле Ле Мофф, Дидье Совегрен, Жан-Пьер Лори, Флоранс Дарель, Пьер Бэйот, Эммануэль де Шовиньи, Матиас Юнг, Жан-Пьерр Бекер, Квентин Ожье, Стефан Буше, Ксавье Мали, Венсан Солиньяк, Сильвен Кортай, Натали Ришар, Марио Лураши, Даниэль Верите, Филипп Морье-Жено, Янн Коллетт, Эдит Скоб, Элен де Фужероль, Моник Мелинан, Ален Оливье, Мишель Берто, Фредерик Витта, Жан-Клод Фриссунг, Пол Бэнди, Колин Риз, Джесси Джо Уолш, Жан-Франсуа Лапалюс, Лоис Удре

О фильме: В втором фильме рассказывается, как Жанна, несмотря на нежелание Королевского совета, продолжает освободительную войну против англичан. Победа под Орлеаном. Миропомазание короля Карла в Реймсе. Она приходит на помощь Компьеню, осаждённому бургундцамии и, в результате предательства, попадает в плен. Король Карл, который стольким был ей обязан, не делает ничего, чтобы спасти Жанну. Вскоре за 10 000 золотых ливров бургундцы продают её англичанам. Инквизиционный процесс Жанны д’Арк проходит в Руане под председательством Пьера Кошона, епископа Бове. Жанна была признана виновной по всем основным пунктам обвинения как вероотступница и еретичка, после чего сжигается на костре...



Качество: BDRip 720p
Формат: MKV
Видео: MPEG-4 AVC, 5694 Kбит/с, 1280x690, 24 кадр/с
Аудио 1: русский, AC3, 192 kbps, 2 ch, 48 kHz [закадровый двухголосый, Видеофильм по заказу НТВ]
Аудио 2: французский, AC3, 448 kbps, 6 ch, 48 kHz [оригинал]
Субтитры 1: русские
Субтитры 2: английские
Главы/чаптеры
Общее
Уникальный идентификатор : 249670834623676697578815215301113759886 (0xBBD4DA89BC7E8FC1A4CD22F093C1488E)
Полное имя : D:\Video\Жанна-Дева - Тюрьмы.1994.BDRip 720p by msltel.mkv
Формат : Matroska
Версия формата : Version 4
Размер файла : 7,81 Гбайт
Продолжительность : 2 ч. 56 м.
Общий поток : 6337 Кбит/сек
Название фильма : Rip by msltel
Дата кодирования : UTC 2020-01-16 08:08:15
Программа кодирования : mkvmerge v8.2.0 ('World of Adventure') 64bit
Библиотека кодирования : libebml v1.3.1 + libmatroska v1.4.2

Видео
Идентификатор : 1
Формат : AVC
Формат/Информация : Advanced Video Codec
Профиль формата : High@L4.1
Настройки формата : CABAC / 9 Ref Frames
Параметр CABAC формата : Да
Параметр RefFrames формата : 9 кадров
Идентификатор кодека : V_MPEG4/ISO/AVC
Продолжительность : 2 ч. 56 м.
Битрейт : 5694 Кбит/сек
Ширина : 1280 пикселей
Высота : 690 пикселей
Соотношение сторон : 1,85:1
Режим частоты кадров : Постоянный
Частота кадров : 24,000 кадра/сек
Цветовое пространство : YUV
Субдискретизация насыщенности : 4:2:0
Битовая глубина : 8 бит
Тип развёртки : Прогрессивная
Бит/(Пиксели*Кадры) : 0.269
Размер потока : 7,02 Гбайт (90%)
Библиотека кодирования : x264 core 157 r2935 545de2f
Настройки программы : cabac=1 / ref=9 / deblock=1:-2:-2 / analyse=0x3:0x113 / me=umh / subme=11 / psy=1 / psy_rd=1.00:0.15 / mixed_ref=1 / me_range=32 / chroma_me=1 / trellis=2 / 8x8dct=1 / cqm=0 / deadzone=21,11 / fast_pskip=0 / chroma_qp_offset=-3 / threads=6 / lookahead_threads=1 / sliced_threads=0 / nr=0 / decimate=1 / interlaced=0 / bluray_compat=0 / constrained_intra=0 / bframes=11 / b_pyramid=2 / b_adapt=2 / b_bias=0 / direct=1 / weightb=1 / open_gop=0 / weightp=2 / keyint=230 / keyint_min=23 / scenecut=40 / intra_refresh=0 / rc_lookahead=40 / rc=crf / mbtree=0 / crf=18.0 / qcomp=0.60 / qpmin=0 / qpmax=69 / qpstep=4 / vbv_maxrate=50000 / vbv_bufsize=62500 / crf_max=0.0 / nal_hrd=none / filler=0 / ip_ratio=1.40 / pb_ratio=1.30 / aq=1:1.00
Язык : French
Default : Да
Forced : Нет

Аудио #1
Идентификатор : 2
Формат : AC-3
Формат/Информация : Audio Coding 3
Коммерческое название : Dolby Digital
Идентификатор кодека : A_AC3
Продолжительность : 2 ч. 56 м.
Вид битрейта : Постоянный
Битрейт : 192 Кбит/сек
Каналы : 2 канала
ChannelLayout : L R
Частота : 48,0 КГц
Частота кадров : 31,250 кадров/сек (1536 SPF)
Метод сжатия : С потерями
Размер потока : 242 Мбайт (3%)
Заголовок : DVO Видеофильм по заказу НТВ
Язык : Russian
ServiceKind/String : Complete Main
Default : Да
Forced : Нет

Аудио #2
Идентификатор : 3
Формат : AC-3
Формат/Информация : Audio Coding 3
Коммерческое название : Dolby Digital
Идентификатор кодека : A_AC3
Продолжительность : 2 ч. 56 м.
Вид битрейта : Постоянный
Битрейт : 448 Кбит/сек
Каналы : 6 каналов
ChannelLayout : L R C LFE Ls Rs
Частота : 48,0 КГц
Частота кадров : 31,250 кадров/сек (1536 SPF)
Метод сжатия : С потерями
Размер потока : 565 Мбайт (7%)
Заголовок : original
Язык : French
ServiceKind/String : Complete Main
Default : Нет
Forced : Нет

Текст #1
Идентификатор : 4
Формат : UTF-8
Идентификатор кодека : S_TEXT/UTF8
Идентификатор кодека/Информация : UTF-8 Plain Text
Продолжительность : 2 ч. 51 м.
Битрейт : 67 бит/сек
ElementCount : 1366
Размер потока : 84,9 Кбайт (0%)
Заголовок : русские
Язык : Russian
Default : Нет
Forced : Нет

Текст #2
Идентификатор : 5
Формат : UTF-8
Идентификатор кодека : S_TEXT/UTF8
Идентификатор кодека/Информация : UTF-8 Plain Text
Продолжительность : 2 ч. 49 м.
Битрейт : 35 бит/сек
ElementCount : 1551
Размер потока : 44,6 Кбайт (0%)
Заголовок : английские
Язык : English
Default : Нет
Forced : Нет

Меню
00:00:00.000 : en:Chapter 1
00:11:49.583 : en:Chapter 2
00:20:07.250 : en:Chapter 3
00:32:02.792 : en:Chapter 4
00:40:17.083 : en:Chapter 5
00:51:04.750 : en:Chapter 6
01:01:10.708 : en:Chapter 7
01:09:19.250 : en:Chapter 8
01:21:04.542 : en:Chapter 9
01:30:27.083 : en:Chapter 10
01:40:37.458 : en:Chapter 11
01:52:22.083 : en:Chapter 12
02:01:47.125 : en:Chapter 13
02:09:50.250 : en:Chapter 14
02:18:14.208 : en:Chapter 15
02:28:29.417 : en:Chapter 16
02:41:20.417 : en:Chapter 17
02:48:12.208 : en:Chapter 18
piratbit.org



Скачать Жанна-Дева - Тюрьмы через торрент https://a.radikal.ru/a20/2001/59/ce5881449401.jpg Скачать фильм Жанна-Дева - Тюрьмы через торрент бесплантно в хорошем качестве О фильме: В втором фильме рассказывается, как Жанна, несмотря на нежелание Королевского совета, продолжает освободительную войну против ... 10 10 1
Торрент: Зарегистрирован [2020-01-16 09:37] · скачан: 9 раз
Статус: √ проверено
Размер: 7.81 GB
Как cкачать? Как скачать Жанна-Дева - Тюрьмы через торрент | qTorrent

% Раздел Тема Автор DL S | L
Арт-хаус и авторское кино [ 3.98 GB ] Жанна-Дева - Тюрьмы / Jeanne la Pucelle II - Les prisons [1994 биография история BDRip-AVC by msltel] DVO msltel Скачать
1 | 0

28-11-2019 20:33  

Отключить всю рекламу на сайте

    Дорогой пользователь! Огромная просьба, поблагодарите релизера, оцените раздачу и оставьте свои комментарий, если Вы скачали Жанна-Дева - Тюрьмы через торрент бесплатно! Внесите свою лепту в развитие PiratBit!
    Комментировать посты могут только пользователи прошедшие не сложную регистрацию
    Показать сообщения:    

    Жанна-Дева - Тюрьмы через торрент
    Скачать бесплатно Жанна-Дева - Тюрьмы
    Жанна-Дева - Тюрьмы скачать торрент
    Жанна-Дева - Тюрьмы смотреть онлайн
    Cкачать фильм Жанна-Дева - Тюрьмы бесплатно
    Жанна-Дева - Тюрьмы скачать торрент в хорошем качестве
    Жанна-Дева - Тюрьмы смотреть онлайн бесплатно в хорошем качестве


    Вы не можете начинать темы
    Вы не можете отвечать на сообщения
    Вы не можете редактировать свои сообщения
    Вы не можете удалять свои сообщения
    Вы не можете голосовать в опросах
    Вы не можете прикреплять файлы к сообщениям
    Вы можете скачивать файлы