Ссылка на приватное зеркало всего за 1$. Внимание количество ограничено!!!

OK

1+1

iTunes

мы

OK

1

WEB-DLRip

Джокер

Пифагор

Ведьмак / The Witcher сериал

Лицензия

ПШазам

ОК

Оно 2

iTunes

30
pack

Вам бонус

ВАЖНО

!!Акция!!

Alien_RageХит недели

RePack

Resident Evil 21

ИГРА 18+

pack

RePack

jed

!!Акция!!

Alien_Rage

RePack

fifa19

RePack

Assassins Creed: Odyssey

RePack

NEED FOR SPEED™ PAYBACK

4 сезон

9 сезон

Бесстыжие 9 сезон

Все сериалы

все сериалы на PB.wtf

RePack

FAR CRY 5
  

Портрет девушки в огне / Portrait de la jeune fille en feu (Селин Сьямма) [2019, Драма, WEB-DL 720p] [DUB] [iTunes] piratbit.org

Портрет девушки в огне через торрент piratbit.org

Раздают: 9 [ 507 KB/s ] Качают: 1 [ 0 KB/s ]
Размер: 3.77 GB | Добавлен: 3 д. назад | Торрент скачан:29 раз
Скачать  

16-01-2020 10:10 Портрет девушки в огне Скачать торрент  

Портрет девушки в огне / Portrait de la jeune fille en feu
-
Страна: Франция
Жанр: Драма
Год выпуска: 2019
Продолжительность: 02:01:17
Перевод: Профессиональный (дублированный) | (iTunes)
Cубтитры: Русские




Режиссёр: Селин Сьямма / Céline Sciamma

В ролях: Ноэми Мерлан, Адель Энель, Луана Байрами, Валерия Голино, Кристель Барас, Арман Буланжер, Ги Деламарш, Клеман Буассу, Мишель Клеман, Сесиль Морел

Описание: Бретань, 1770. Марианна, художница, приезжает в имение на побережье, чтобы написать портрет дочери его владелицы — Элоизы. Картина нужна, чтобы отправить жениху Элоизы в Милан. В знак протеста против замужества девушка отказывается позировать, и гостью представляют как компаньонку для прогулок. Проводя все больше времени вместе, девушки начинают чувствовать взаимное притяжение.



Тип релиза: WEB-DL 720p TeamHD
Контейнер: MKV
Видео: AVC/H.264, 1280x690, 4070 Kbps, 23.976 fps
Аудио: Русский | AC-3, 6 ch, 384 Kbps, 48.0 KHz
Формат субтитров: softsub (SRT)




Код:

General
Unique ID                                : 334811299204650332011190357176469124173 (0xFBE24F8919D1B06F55DAD3373EAF744D)
Complete name                            : /Volumes/Promise 2/Portrait.de.la.jeune.fille.en.feu.WEB-DL.720p.TeamHD.mkv
Format                                   : Matroska
Format version                           : Version 4
File size                                : 3.77 GiB
Duration                                 : 2h 1mn
Overall bit rate                         : 4 456 Kbps
Movie name                               : Portrait de la jeune fille en feu WEB-DL 720p
Encoded date                             : UTC 2020-01-15 22:15:54
Writing application                      : mkvmerge v42.0.0 ('Overtime') 64-bit
Writing library                          : libebml v1.3.10 + libmatroska v1.5.2

Video
ID                                       : 1
Format                                   : AVC
Format/Info                              : Advanced Video Codec
Format profile                           : High@L3.1
Format settings                          : 2 Ref Frames
Format settings, CABAC                   : No
Format settings, ReFrames                : 2 frames
Codec ID                                 : V_MPEG4/ISO/AVC
Duration                                 : 2h 1mn
Bit rate                                 : 4 070 Kbps
Width                                    : 1 280 pixels
Height                                   : 690 pixels
Display aspect ratio                     : 1.85:1
Frame rate mode                          : Constant
Frame rate                               : 23.976 (24000/1001) fps
Color space                              : YUV
Chroma subsampling                       : 4:2:0
Bit depth                                : 8 bits
Scan type                                : Progressive
Bits/(Pixel*Frame)                       : 0.192
Stream size                              : 3.45 GiB (91%)
Language                                 : French
Default                                  : Yes
Forced                                   : No
Color range                              : Limited
Color primaries                          : BT.709
Transfer characteristics                 : BT.709
Matrix coefficients                      : BT.709

Audio
ID                                       : 2
Format                                   : AC-3
Format/Info                              : Audio Coding 3
Commercial name                          : Dolby Digital
Codec ID                                 : A_AC3
Duration                                 : 2h 1mn
Bit rate mode                            : Constant
Bit rate                                 : 384 Kbps
Channel(s)                               : 6 channels
Channel layout                           : L R C LFE Ls Rs
Sampling rate                            : 48.0 KHz
Frame rate                               : 31.250 fps (1536 SPF)
Compression mode                         : Lossy
Stream size                              : 333 MiB (9%)
Title                                    : Russian DUB iTunes
Language                                 : Russian
Service kind                             : Complete Main
Default                                  : Yes
Forced                                   : No

Text
ID                                       : 3
Format                                   : UTF-8
Codec ID                                 : S_TEXT/UTF8
Codec ID/Info                            : UTF-8 Plain Text
Duration                                 : 1h 55mn
Bit rate                                 : 74 bps
Count of elements                        : 670
Stream size                              : 63.4 KiB (0%)
Title                                    : Russian full
Language                                 : Russian
Default                                  : Yes
Forced                                   : No

Menu
00:00:00.000                             : en:1
00:08:42.000                             : en:2
00:18:41.000                             : en:3
00:28:19.000                             : en:4
00:40:19.000                             : en:5
00:52:58.000                             : en:6
01:03:39.000                             : en:7
01:14:32.000                             : en:8
01:22:20.000                             : en:9
01:34:53.000                             : en:10
01:44:23.000                             : en:11
01:52:22.000                             : en:12
01:58:28.000                             : en:13

скриншот  скриншот  скриншот  
piratbit.org



Скачать Портрет девушки в огне через торрент https://i111.fastpic.ru/big/2020/0116/92/0cdded7b7b8d49b01100bb1f61fc2492.jpg Скачать фильм Портрет девушки в огне через торрент бесплантно в хорошем качестве Описание: Бретань, 1770. Марианна, художница, приезжает в имение на побережье, чтобы написать портрет дочери его владелицы — Элоизы. ... 10 10 1
Торрент: Зарегистрирован [2020-01-16 10:10] · скачан: 29 раз
Статус: √ проверено
Размер: 3.77 GB
Как cкачать? Как скачать Портрет девушки в огне через торрент | qTorrent

% Раздел Тема Автор DL S | L
Фильмы (WEB-DL 720p, 1080p) [ 4.4 GB ] Портрет девушки в огне / Portrait de la jeune fille en feu [2019 WEB-DL 1080p] bober100 Скачать
14 | 0
Фильмы 2019-2020 [DVDrip, WEB-DLRip, HDrip] (DUB, MVO) [ 1.46 GB ] Портрет девушки в огне / Portrait de la jeune fille en feu [2019 WEB-DLRip] bober100 Скачать
11 | 1

28-11-2019 20:33  

Отключить всю рекламу на сайте

    Дорогой пользователь! Огромная просьба, поблагодарите релизера, оцените раздачу и оставьте свои комментарий, если Вы скачали Портрет девушки в огне через торрент бесплатно! Внесите свою лепту в развитие PiratBit!
    Комментировать посты могут только пользователи прошедшие не сложную регистрацию
    Показать сообщения:    

    Портрет девушки в огне через торрент
    Скачать бесплатно Портрет девушки в огне
    Портрет девушки в огне скачать торрент
    Портрет девушки в огне смотреть онлайн
    Cкачать фильм Портрет девушки в огне бесплатно
    Портрет девушки в огне скачать торрент в хорошем качестве
    Портрет девушки в огне смотреть онлайн бесплатно в хорошем качестве


    Вы не можете начинать темы
    Вы не можете отвечать на сообщения
    Вы не можете редактировать свои сообщения
    Вы не можете удалять свои сообщения
    Вы не можете голосовать в опросах
    Вы не можете прикреплять файлы к сообщениям
    Вы можете скачивать файлы