Ссылка на приватное зеркало нашего сайта всего за 1$. Внимание количество ограничено!!!

2 сезон

iTunes

iTunes

1

iTunes

iTunes

iTunes

WEBRip

iTunes

30
pack

Вам бонус

ВАЖНО

!!Акция!!

Alien_RageХит недели

RePack

Horizon Zero Dawn

ИГРА 18+

pack

RePack

jed

!!Акция!!

Alien_Rage

RePack

fifa19

RePack

Assassins Creed: Odyssey

RePack

NEED FOR SPEED™ PAYBACK

4 сезон

9 сезон

Бесстыжие 9 сезон

Все сериалы

все сериалы на PB.wtf

RePack

FAR CRY 5
  

Час пик 3 / Rush Hour 3 (Бретт Рэтнер) [2007, боевик, триллер, комедия, криминал, BDRip-AVC by msltel] DUB, 2 x AVO piratbit.org

Час пик 3 через торрент piratbit.org

Размер: 2.31 GB | Добавлен: 8 мес. назад | Торрент скачан:6 раз
Скачать  

17-01-2020 05:33 Час пик 3 Скачать торрент  

Название: Час пик 3
Оригинальное название: Rush Hour 3
Год выпуска: 2007
Страна: США, Германия
Жанр: боевик, триллер, комедия, криминал
Продолжительность: 01:30:47
Перевод: дублированный, авторский
Режиссер: Бретт Рэтнер
В ролях: Крис Такер, Джеки Чан, Макс фон Сюдов, Хироюки Санада, Иван Атталь, Юки Кудо, Ноэми Ленуар, Цзинчу Чжан, Ци Ма, Дэна Айви, Генри О, Миа Тайлер, Майкл Чоу, Дэвид Найвен мл., Оань Нгуен, Эндрю Нгуен, Сунь Минг Минг, Лиза Торнхилл, Кэнтаро Юри Йамашита, Людовик Пэрис, Ришар Дьё, Оливье Шнайдер, Филипп Бержерон, Даниэль Ябут, Фрэнк Брюнброк, Лиза Пипергердес, Эрик Наггар, Сильви Лагюна, Микаэла Ми-Сук, Даниэль Декрозе, Энн Кристин, Анна Чи, Хезер Мостофизадех, Жасмин Дастин, Франческа Сесил, Дэвид Голдсмит, Мишель Франчини, Жюли Депардьё, Марк Хоанг, Лиза Бернс

О фильме: Лос-анджелесского полицейского Джеймса Картера, допустившего грубую ошибку при аресте подозреваемого, переводят на менее престижную должность в дорожной полиции. Тем временем гонконгский полицейский инспектор Ли получает спецзадание: охранять китайского посла Хана, который направляется в Лос-Анджелес, чтобы произнести там речь на саммите Всемирного уголовного суда. Хан намеревается разоблачить интриги китайской Триады - самого опасного криминального синдиката в мире и вывести на чистую воду преступных боссов. Представители Триады, разумеется, не дремлют. Они отправляют в Лос-Анджелес наёмного убийцу, которому удаётся ранить посла в тот самый момент, когда он начинает произносить свою разоблачительную речь. Ли бросается вдогонку за преступником. Тем временем Картер, услышав по полицейскому радио сообщение о покушении на посла, мчится на место преступления и, естественно, только путается под ногами у Ли...



Качество: BDRip-AVC
Формат: MKV
Видео: MPEG-4 AVC, 1844 Кбит/с, 1024x426, 23.976 кадр/с
Аудио 1: русский, AC3, 448 kbps, 6 ch, 48 kHz [дублированный]
Аудио 2: русский, AC3, 448 kbps, 6 ch, 48 kHz [авторский, Андрей Гаврилов]
Аудио 3: русский, AC3, 448 kbps, 6 ch, 48 kHz [авторский, Владимир Королёв]
Аудио 4: английский, AC3, 448 kbps, 6 ch, 48 kHz [оригинал]
Субтитры 1: русские (на китайскую речь)
Субтитры 2: русские
Субтитры 3: английские
Главы/чаптеры
Общее
Уникальный идентификатор : 225908113205542719158810958479068695746 (0xA9F451EAE1AB8BFB841034DD21930CC2)
Полное имя : D:\Video\Час пик 3.2007.BDRip-AVC by msltel.mkv
Формат : Matroska
Версия формата : Version 4
Размер файла : 2,31 Гбайт
Продолжительность : 1 ч. 30 м.
Общий поток : 3639 Кбит/сек
Название фильма : Rip by msltel
Дата кодирования : UTC 2020-01-16 13:10:59
Программа кодирования : mkvmerge v8.2.0 ('World of Adventure') 64bit
Библиотека кодирования : libebml v1.3.1 + libmatroska v1.4.2

Видео
Идентификатор : 1
Формат : AVC
Формат/Информация : Advanced Video Codec
Профиль формата : High@L4.1
Настройки формата : CABAC / 9 Ref Frames
Параметр CABAC формата : Да
Параметр RefFrames формата : 9 кадров
Идентификатор кодека : V_MPEG4/ISO/AVC
Продолжительность : 1 ч. 30 м.
Битрейт : 1844 Кбит/сек
Ширина : 1024 пикселя
Высота : 426 пикселей
Соотношение сторон : 2,40:1
Режим частоты кадров : Постоянный
Частота кадров : 23,976 (24000/1001) кадра/сек
Цветовое пространство : YUV
Субдискретизация насыщенности : 4:2:0
Битовая глубина : 8 бит
Тип развёртки : Прогрессивная
Бит/(Пиксели*Кадры) : 0.176
Размер потока : 1,17 Гбайт (51%)
Библиотека кодирования : x264 core 157 r2935 545de2f
Настройки программы : cabac=1 / ref=9 / deblock=1:-2:-2 / analyse=0x3:0x113 / me=umh / subme=11 / psy=1 / psy_rd=1.00:0.15 / mixed_ref=1 / me_range=32 / chroma_me=1 / trellis=2 / 8x8dct=1 / cqm=0 / deadzone=21,11 / fast_pskip=0 / chroma_qp_offset=-3 / threads=6 / lookahead_threads=1 / sliced_threads=0 / nr=0 / decimate=1 / interlaced=0 / bluray_compat=0 / constrained_intra=0 / bframes=9 / b_pyramid=2 / b_adapt=2 / b_bias=0 / direct=1 / weightb=1 / open_gop=0 / weightp=2 / keyint=230 / keyint_min=23 / scenecut=40 / intra_refresh=0 / rc_lookahead=40 / rc=crf / mbtree=0 / crf=19.7 / qcomp=0.60 / qpmin=0 / qpmax=69 / qpstep=4 / vbv_maxrate=50000 / vbv_bufsize=62500 / crf_max=0.0 / nal_hrd=none / filler=0 / ip_ratio=1.40 / pb_ratio=1.30 / aq=1:1.00
Язык : English
Default : Да
Forced : Нет

Аудио #1
Идентификатор : 2
Формат : AC-3
Формат/Информация : Audio Coding 3
Коммерческое название : Dolby Digital
Идентификатор кодека : A_AC3
Продолжительность : 1 ч. 30 м.
Вид битрейта : Постоянный
Битрейт : 448 Кбит/сек
Каналы : 6 каналов
ChannelLayout : L R C LFE Ls Rs
Частота : 48,0 КГц
Частота кадров : 31,250 кадров/сек (1536 SPF)
Метод сжатия : С потерями
Размер потока : 291 Мбайт (12%)
Заголовок : DUB R5 Мосфильм
Язык : Russian
ServiceKind/String : Complete Main
Default : Да
Forced : Нет

Аудио #2
Идентификатор : 3
Формат : AC-3
Формат/Информация : Audio Coding 3
Коммерческое название : Dolby Digital
Идентификатор кодека : A_AC3
Продолжительность : 1 ч. 30 м.
Вид битрейта : Постоянный
Битрейт : 448 Кбит/сек
Каналы : 6 каналов
ChannelLayout : L R C LFE Ls Rs
Частота : 48,0 КГц
Частота кадров : 31,250 кадров/сек (1536 SPF)
Метод сжатия : С потерями
Размер потока : 291 Мбайт (12%)
Заголовок : Андрей Гаврилов
Язык : Russian
ServiceKind/String : Complete Main
Default : Нет
Forced : Нет

Аудио #3
Идентификатор : 4
Формат : AC-3
Формат/Информация : Audio Coding 3
Коммерческое название : Dolby Digital
Идентификатор кодека : A_AC3
Продолжительность : 1 ч. 30 м.
Вид битрейта : Постоянный
Битрейт : 448 Кбит/сек
Каналы : 6 каналов
ChannelLayout : L R C LFE Ls Rs
Частота : 48,0 КГц
Частота кадров : 31,250 кадров/сек (1536 SPF)
Метод сжатия : С потерями
Размер потока : 291 Мбайт (12%)
Заголовок : Владимир Королёв
Язык : Russian
ServiceKind/String : Complete Main
Default : Нет
Forced : Нет

Аудио #4
Идентификатор : 5
Формат : AC-3
Формат/Информация : Audio Coding 3
Коммерческое название : Dolby Digital
Идентификатор кодека : A_AC3
Продолжительность : 1 ч. 30 м.
Вид битрейта : Постоянный
Битрейт : 448 Кбит/сек
Каналы : 6 каналов
ChannelLayout : L R C LFE Ls Rs
Частота : 48,0 КГц
Частота кадров : 31,250 кадров/сек (1536 SPF)
Метод сжатия : С потерями
Размер потока : 291 Мбайт (12%)
Заголовок : original
Язык : English
ServiceKind/String : Complete Main
Default : Нет
Forced : Нет

Текст #1
Идентификатор : 6
Формат : UTF-8
Идентификатор кодека : S_TEXT/UTF8
Идентификатор кодека/Информация : UTF-8 Plain Text
Продолжительность : 1 ч. 3 м.
Битрейт : 2 бит/сек
ElementCount : 19
Размер потока : 1,19 Кбайт (0%)
Заголовок : русские на китайскую речь
Язык : Russian
Default : Да
Forced : Да

Текст #2
Идентификатор : 7
Формат : UTF-8
Идентификатор кодека : S_TEXT/UTF8
Идентификатор кодека/Информация : UTF-8 Plain Text
Продолжительность : 1 ч. 23 м.
Битрейт : 103 бит/сек
ElementCount : 1220
Размер потока : 63,6 Кбайт (0%)
Заголовок : русские
Язык : Russian
Default : Нет
Forced : Нет

Текст #3
Идентификатор : 8
Формат : UTF-8
Идентификатор кодека : S_TEXT/UTF8
Идентификатор кодека/Информация : UTF-8 Plain Text
Продолжительность : 1 ч. 26 м.
Битрейт : 66 бит/сек
ElementCount : 1458
Размер потока : 42,5 Кбайт (0%)
Заголовок : английские
Язык : English
Default : Нет
Forced : Нет

Меню
00:00:00.000 : :Main Titles
00:05:06.556 : :Attack at the World Court
00:09:24.230 : :The Promise
00:12:03.597 : :The Master
00:17:21.080 : :Hospital Ambush
00:20:44.117 : :Interrogation
00:24:06.111 : :Welcome to Paris
00:29:48.661 : :Searching for Genevieve
00:35:57.989 : :Superspy Chase
00:41:56.472 : :Brothers
00:47:48.323 : :Showtime!
00:54:17.212 : :Shy Shen
01:05:50.988 : :The First Cut
01:11:06.511 : :Tower Duel
01:15:14.760 : :What Goes Up
01:21:43.857 : :Outtakes/End Credits
piratbit.org



Скачать Час пик 3 через торрент https://a.radikal.ru/a38/2001/1c/50f9936bb6df.jpg Скачать фильм Час пик 3 через торрент бесплантно в хорошем качестве О фильме: Лос-анджелесского полицейского Джеймса Картера, допустившего грубую ошибку при аресте подозреваемого, переводят на менее ... 5 10 1
Торрент: Зарегистрирован [2020-01-17 05:33] · скачан: 6 раз
Статус: √ проверено
Размер: 2.31 GB
Как cкачать? Как скачать Час пик 3 через торрент | qTorrent

28-11-2019 20:33  

Отключить всю рекламу на сайте

    Дорогой пользователь! Огромная просьба, поблагодарите релизера, оцените раздачу и оставьте свои комментарий, если Вы скачали Час пик 3 через торрент бесплатно! Внесите свою лепту в развитие PiratBit!
    Комментировать посты могут только пользователи прошедшие не сложную регистрацию
    Показать сообщения:    

    Час пик 3 через торрент
    Скачать бесплатно Час пик 3
    Час пик 3 скачать торрент
    Час пик 3 смотреть онлайн
    Cкачать фильм Час пик 3 бесплатно
    Час пик 3 скачать торрент в хорошем качестве
    Час пик 3 смотреть онлайн бесплатно в хорошем качестве


    Вы не можете начинать темы
    Вы не можете отвечать на сообщения
    Вы не можете редактировать свои сообщения
    Вы не можете удалять свои сообщения
    Вы не можете голосовать в опросах
    Вы не можете прикреплять файлы к сообщениям
    Вы можете скачивать файлы