Доктор Стрэндж

Лицензия

Добыча

Дубляж

Дом дракона

1 сезон

Тор

Дубляж

В эфире

Дубляж

Там, где раки поют

MVO

Властелин колец

1 сезон

Ultimate

pack

Рекомендуем

30

Пиратка

ВАЖНО

ВАЖНО

Ghostwire

Пиратка

jed

RePack

nioh2

RePack

RDR2

RePack

NEED FOR SPEED™ PAYBACK

RePack

скачать торрент

Кинопоиск HD

Острые козырьки 6 сезон

6 сезон

FAR CRY 6

RePack

скачать торрент

Лицензия

скачать торрент

MVO

1

1 сезон

скачать торрент

1 сезон

скачать торрент

Лицензия

  

Сиротский Бруклин / Motherless Brooklyn (Эдвард Нортон) [2019, драма, криминал, HDRip-AVC] Дубляж [iTunes]

Сиротский Бруклин через торрент piratbit.org

Раздают: 1 [ 0 KB/s ]
Размер: 2.17 GB | Добавлен: 2 года 10 мес. назад | Торрент скачан:857 раз
Смотреть онлайн | Скачать   

18-01-2020 18:43 Сиротский Бруклин Скачать торрент  

Сиротский Бруклин | Motherless Brooklyn
Год выпуска: 2019
Страна: США
Студия: Class 5 Films, Odd Lot Entertainment, Warner Bros. Pictures
Жанр: драма, криминал
Продолжительность: 02:24:21
Перевод: Дублированный | iTunes
Субтитры: Русские (Forced, full)

Режиссер: Эдвард Нортон

rating

В ролях: Эдвард Нортон, Гугу Эмбата-Ро, Алек Болдуин, Бобби Каннавале, Уиллем Дефо, Брюс Уиллис, Итан Сапли, Черри Джонс, Даллас Робертс, Джош Пэйс

Описание: Лайонел Эссрог, одинокий частный детектив с синдромом Туретта, решается начать расследование убийства своего наставника и единственного друга Фрэнка Минны. У него есть лишь несколько зацепок и сила разума, одержимого поставленной целью, чтобы распутать клубок тщательно скрываемых тайн, которые сохраняют баланс сил в самом Нью-Йорке. Расследование заводит его в джазовые клубы Гарлема, где рекой течет джин, опасные трущобы Бруклина и, наконец, позолоченные залы политической элиты мегаполиса. Он бросает вызов гангстерам, коррупции и самому опасному человеку в городе, чтобы очистить имя своего друга и спасти женщину, которая может спасти его самого.

Качество: HDRip-AVC
Формат: MKV

Видео: 1024x552 (1,85:1), 23.976 fps, MPEG-4 AVC ~ 1774 Кbps avg, 0.131 bit/pixel
Аудио: AC3, 48 kHz, 6 ch, ~384.00 kbps avg | русский | iTunes
скриншот  скриншот  скриншот  скриншот  

Общее
Уникальный идентификатор : 271686422006306099124604960504034679975 (0xCC64E6CCCD6CA83D923F6F431870DCA7)
Полное имя : Motherless.Brooklyn.2019.RUS.HDRip.x264.mkv
Формат : Matroska
Версия формата : Version 4
Размер файла : 2,17 Гбайт
Продолжительность : 2 ч. 24 м.
Общий поток : 2153 Кбит/сек
Название фильма : Сиротский Бруклин / Motherless Brooklyn (2019)
Дата кодирования : UTC 2020-01-18 18:19:19
Программа кодирования : mkvmerge v41.0.0 ('Smarra') 64-bit
Библиотека кодирования : libebml v1.3.9 + libmatroska v1.5.2
Обложка : Yes
Attachments : cover.jpg

Видео
Идентификатор : 1
Формат : AVC
Формат/Информация : Advanced Video Codec
Профиль формата : High@L4.1
Настройки формата : CABAC / 9 Ref Frames
Параметр CABAC формата : Да
Параметр RefFrames формата : 9 кадров
Идентификатор кодека : V_MPEG4/ISO/AVC
Продолжительность : 2 ч. 24 м.
Битрейт : 1774 Кбит/сек
Ширина : 1024 пикселя
Высота : 552 пикселя
Соотношение сторон : 1,85:1
Режим частоты кадров : Постоянный
Частота кадров : 23,976 (24000/1001) кадра/сек
Цветовое пространство : YUV
Субдискретизация насыщенности : 4:2:0
Битовая глубина : 8 бит
Тип развёртки : Прогрессивная
Бит/(Пиксели*Кадры) : 0.131
Размер потока : 1,78 Гбайт (82%)
Заголовок : #stillet
Библиотека кодирования : x264 core 152 r2851bm ba24899
Настройки программы : cabac=1 / ref=9 / deblock=1:-3:-3 / analyse=0x3:0x113 / me=umh / subme=10 / psy=1 / psy_rd=1.00:0.15 / mixed_ref=1 / me_range=32 / chroma_me=1 / trellis=2 / 8x8dct=1 / cqm=0 / deadzone=21,11 / fast_pskip=0 / chroma_qp_offset=-3 / threads=16 / lookahead_threads=3 / sliced_threads=0 / nr=0 / decimate=0 / interlaced=0 / bluray_compat=0 / constrained_intra=0 / bframes=10 / b_pyramid=2 / b_adapt=2 / b_bias=0 / direct=3 / weightb=1 / open_gop=0 / weightp=2 / keyint=240 / keyint_min=23 / scenecut=40 / intra_refresh=0 / rc=2pass / mbtree=0 / bitrate=1774 / ratetol=1.0 / qcomp=0.60 / qpmin=0 / qpmax=69 / qpstep=4 / cplxblur=20.0 / qblur=0.5 / ip_ratio=1.40 / pb_ratio=1.30 / aq=1:1.00
Язык : English
Default : Да
Forced : Нет

Аудио
Идентификатор : 2
Формат : AC-3
Формат/Информация : Audio Coding 3
Коммерческое название : Dolby Digital
Идентификатор кодека : A_AC3
Продолжительность : 2 ч. 24 м.
Вид битрейта : Постоянный
Битрейт : 384 Кбит/сек
Каналы : 6 каналов
ChannelLayout : L R C LFE Ls Rs
Частота : 48,0 КГц
Частота кадров : 31,250 кадров/сек (1536 SPF)
Метод сжатия : С потерями
Размер потока : 396 Мбайт (18%)
Заголовок : iTunes
Язык : Russian
Default : Да
Forced : Да

Текст #1
Идентификатор : 3
Формат : UTF-8
Идентификатор кодека : S_TEXT/UTF8
Идентификатор кодека/Информация : UTF-8 Plain Text
Продолжительность : 2 ч. 23 м.
Битрейт : 4 бит/сек
ElementCount : 71
Размер потока : 4,41 Кбайт (0%)
Заголовок : Forced
Язык : Russian
Default : Да
Forced : Да

Текст #2
Идентификатор : 4
Формат : UTF-8
Идентификатор кодека : S_TEXT/UTF8
Идентификатор кодека/Информация : UTF-8 Plain Text
Продолжительность : 2 ч. 23 м.
Битрейт : 135 бит/сек
ElementCount : 2356
Размер потока : 142 Кбайт (0%)
Заголовок : Full
Язык : Russian
Default : Нет
Forced : Нет

Меню
00:00:00.000 : en:Chapter 01
00:09:57.847 : en:Chapter 02
00:19:20.326 : en:Chapter 03
00:29:14.586 : en:Chapter 04
00:38:47.575 : en:Chapter 05
00:46:33.958 : en:Chapter 06
00:54:01.822 : en:Chapter 07
01:02:12.604 : en:Chapter 08
01:08:42.618 : en:Chapter 09
01:17:48.205 : en:Chapter 10
01:26:55.919 : en:Chapter 11
01:34:07.350 : en:Chapter 12
01:41:25.705 : en:Chapter 13
01:50:29.289 : en:Chapter 14
02:00:21.005 : en:Chapter 15
02:07:02.824 : en:Chapter 16
02:17:16.603 : en:Chapter 17




Скачать Сиротский Бруклин через торрент https://i111.fastpic.ru/big/2020/0118/bc/97f787ec646f4385b6b2cb3a5f839cbc.jpg Скачать, смотреть онлайн Сиротский Бруклин бесплантно в хорошем качестве Описание: Лайонел Эссрог, одинокий частный детектив с синдромом Туретта, решается начать расследование убийства своего наставника и ... 10 10 12
Торрент: Зарегистрирован [2020-01-18 18:43] · скачан: 857 раз
Статус: √ проверено
Размер: 2.17 GB
Как cкачать? Как скачать Сиротский Бруклин через торрент | UTorrent

% Раздел Тема Автор DL S | L
Фильмы (Blu-ray, BD-Remux, HDDVD) [ 38.47 GB ] Сиротский Бруклин / Motherless Brooklyn | Лицензия | 1080p bober100 Скачать
1 | 0
Фильмы [HD 720p, 1080p] (Хороший звук DUB, MVO) [ 9.51 GB ] Сиротский Бруклин / Motherless Brooklyn | iTunes | 720p killermax2013 Скачать
1 | 0
Фильмы 2019-2020 [DVDrip, WEB-DLRip, HDrip] (DUB, MVO) [ 2.18 GB ] Сиротский Бруклин / Motherless Brooklyn | Лицензия | BDRip Twi7ter Скачать
1 | 0
Фильмы 2019-2020 [DVDrip, WEB-DLRip, HDrip] (DUB, MVO) [ 1.46 GB ] Сиротский Бруклин / Motherless Brooklyn | Лицензия | BDRip Twi7ter Скачать
5 | 0
Фильмы 2019-2020 [DVDrip, WEB-DLRip, HDrip] (DUB, MVO) [ 1.45 GB ] Сиротский Бруклин / Motherless Brooklyn | iTunes | BDRip-AVC от OlLanDGroup Skandar2019 Скачать
1 | 0
Фильмы [HD 720p, 1080p] (Хороший звук DUB, MVO) [ 5.78 GB ] Сиротский Бруклин / Motherless Brooklyn | iTunes | 1080p killermax2013 Скачать
2 | 1
Фильмы (Blu-ray, BD-Remux, HDDVD) [ 31.69 GB ] Сиротский Бруклин / Motherless Brooklyn | Лицензия | BD Remux 1080p bober100 Скачать
1 | 0

28-11-2019 20:33  


Отключить вcю реклaмy на сайте, в т.ч. и в плеере онлайн просмотра!

    Дорогой пользователь! Огромная просьба, поблагодарите релизера, оцените раздачу и оставьте свои комментарий, если Вы скачали Сиротский Бруклин через торрент бесплатно!!
    Комментировать посты могут только пользователи прошедшие не сложную регистрацию
    Показать сообщения:    


    Сиротский Бруклин через торрент
    Скачать бесплатно Сиротский Бруклин
    Сиротский Бруклин скачать торрент
    Сиротский Бруклин смотреть онлайн
    Cкачать фильм Сиротский Бруклин бесплатно
    Сиротский Бруклин скачать торрент в хорошем качестве
    Сиротский Бруклин смотреть онлайн бесплатно в хорошем качестве
    Вы не можете начинать темы
    Вы не можете отвечать на сообщения
    Вы не можете редактировать свои сообщения
    Вы не можете удалять свои сообщения
    Вы не можете голосовать в опросах
    Вы не можете прикреплять файлы к сообщениям
    Вы можете скачивать файлы
    Сиротский Бруклин / Motherless Brooklyn [2019, драма, криминал, HDRip-AVC] Дубляж [iTunes] смотреть онлайн, скачать торрент picoco.icu