Ссылка на приватное зеркало нашего сайта всего за 1$. Внимание количество ограничено!!!

2 сезон

iTunes

1 сезон

1

iTunes

iTunes

iTunes

1 сезон

RePack

30

ИГРА 18+

pack

ВАЖНО

!!Акция!!

Alien_RageХит недели

RePack

MK11
pack

Забери бонус

RePack

jed

!!Акция!!

Alien_Rage

RePack

fifa19

RePack

Assassins Creed: Odyssey

RePack

NEED FOR SPEED™ PAYBACK

4 сезон

9 сезон

Бесстыжие 9 сезон

Все сериалы

все сериалы на PB.wtf

RePack

FAR CRY 5
  

Сильные мира сего / Les grandes familles (Дени де Ла Пательер) [1958, драма, BDRip 720p by msltel] DUB, AVO piratbit.org

Сильные мира сего через торрент piratbit.org

Размер: 4.56 GB | Добавлен: 9 мес. назад | Торрент скачан:2 раза
Скачать  

19-01-2020 03:47 Сильные мира сего Скачать торрент  

Название: Сильные мира сего
Оригинальное название: Les grandes familles
Год выпуска: 1958
Страна: Франция
Жанр: драма
Продолжительность: 01:34:17
Перевод: дублированный, авторский
Режиссер: Дени де Ла Пательер
В ролях: Жан Габен, Жан Дезайи, Пьер Брассёр, Бернар Блие, Анни Дюко, Франсуаза Кристоф, Луи Сенье, Жан Валль, Жюльен Берто, Даниэль Лекуртуа, Жан Озенн, Жан Мюра, Надин Таллье, Эме Кларион, Жак Моно, Патрик Миллов, Жан Ланье, Пьер Лепру, Мишель Надаль, Доминик Розан, Паскаль Мадзотти, Эммануэль Рива

О фильме: Мультимиллионер Ноэль ворочает делами процветающей бизнес-империи, имеющей свой интерес в самых разных отраслях, вплоть до издания газет. В целях поддержания и укрепления своих позиций Шудлер активно использует связи в верхах и даже политические рычаги. Он не отягощается нравственными идеалами, ориентируясь лишь на достижение выгоды. Ощущая себя настоящим монархом, он выражает недовольство реформаторскими идеями своего сына Франсуа. Решив преподать ему примерный урок, он и не подозревает, что это приведёт к поистине трагическим последствиям... Фильм снят по одноимённому роману Мориса Дрюона.



Качество: BDRip 720p
Формат: MKV
Видео: MPEG-4 AVC, 6340 Kбит/с, 1196x720
Аудио 1: русский, AC3, 192 kbps, 2 ch, 48 kHz [дублированный, к/с им. Горького с добавлением MVO]
Аудио 2: русский, AC3, 192 kbps, 2 ch, 48 kHz [авторский, Роман Янкелевич]
Аудио 3: французский, AC3, 192 kbps, 2 ch, 48 kHz [оригинал]
Субтитры: французские
Главы/чаптеры
Общее
Уникальный идентификатор : 180212819191633342132868155568517314994 (0x8793B9FAE10B4A2387A16ED4799079B2)
Полное имя : D:\Video\Сильные мира сего.1958.BDRip 720p by msltel.mkv
Формат : Matroska
Версия формата : Version 4
Размер файла : 4,56 Гбайт
Продолжительность : 1 ч. 34 м.
Общий поток : 6919 Кбит/сек
Название фильма : Rip by msltel
Дата кодирования : UTC 2020-01-18 15:29:38
Программа кодирования : mkvmerge v8.2.0 ('World of Adventure') 64bit
Библиотека кодирования : libebml v1.3.1 + libmatroska v1.4.2

Видео
Идентификатор : 1
Формат : AVC
Формат/Информация : Advanced Video Codec
Профиль формата : High@L4.1
Настройки формата : CABAC / 9 Ref Frames
Параметр CABAC формата : Да
Параметр RefFrames формата : 9 кадров
Идентификатор кодека : V_MPEG4/ISO/AVC
Продолжительность : 1 ч. 34 м.
Битрейт : 6340 Кбит/сек
Ширина : 1196 пикселей
Высота : 720 пикселей
Соотношение сторон : 5:3
Режим частоты кадров : Постоянный
Частота кадров : 24,000 кадра/сек
Цветовое пространство : YUV
Субдискретизация насыщенности : 4:2:0
Битовая глубина : 8 бит
Тип развёртки : Прогрессивная
Бит/(Пиксели*Кадры) : 0.307
Размер потока : 4,18 Гбайт (92%)
Библиотека кодирования : x264 core 157 r2935 545de2f
Настройки программы : cabac=1 / ref=9 / deblock=1:-2:-2 / analyse=0x3:0x113 / me=umh / subme=11 / psy=1 / psy_rd=1.00:0.15 / mixed_ref=1 / me_range=32 / chroma_me=1 / trellis=2 / 8x8dct=1 / cqm=0 / deadzone=21,11 / fast_pskip=0 / chroma_qp_offset=-3 / threads=6 / lookahead_threads=1 / sliced_threads=0 / nr=0 / decimate=1 / interlaced=0 / bluray_compat=0 / constrained_intra=0 / bframes=8 / b_pyramid=2 / b_adapt=2 / b_bias=0 / direct=1 / weightb=1 / open_gop=0 / weightp=2 / keyint=230 / keyint_min=23 / scenecut=40 / intra_refresh=0 / rc_lookahead=40 / rc=crf / mbtree=0 / crf=18.0 / qcomp=0.60 / qpmin=0 / qpmax=69 / qpstep=4 / vbv_maxrate=50000 / vbv_bufsize=62500 / crf_max=0.0 / nal_hrd=none / filler=0 / ip_ratio=1.40 / pb_ratio=1.30 / aq=1:1.00
Язык : French
Default : Да
Forced : Нет

Аудио #1
Идентификатор : 2
Формат : AC-3
Формат/Информация : Audio Coding 3
Коммерческое название : Dolby Digital
Идентификатор кодека : A_AC3
Продолжительность : 1 ч. 34 м.
Вид битрейта : Постоянный
Битрейт : 192 Кбит/сек
Каналы : 2 канала
ChannelLayout : L R
Частота : 48,0 КГц
Частота кадров : 31,250 кадров/сек (1536 SPF)
Метод сжатия : С потерями
Размер потока : 129 Мбайт (3%)
Заголовок : DUB к/с им. Горького с добавлением MVO
Язык : Russian
ServiceKind/String : Complete Main
Default : Да
Forced : Нет

Аудио #2
Идентификатор : 3
Формат : AC-3
Формат/Информация : Audio Coding 3
Коммерческое название : Dolby Digital
Идентификатор кодека : A_AC3
Продолжительность : 1 ч. 34 м.
Вид битрейта : Постоянный
Битрейт : 192 Кбит/сек
Каналы : 2 канала
ChannelLayout : L R
Частота : 48,0 КГц
Частота кадров : 31,250 кадров/сек (1536 SPF)
Метод сжатия : С потерями
Размер потока : 129 Мбайт (3%)
Заголовок : Роман Янкелевич
Язык : Russian
ServiceKind/String : Complete Main
Default : Нет
Forced : Нет

Аудио #3
Идентификатор : 4
Формат : AC-3
Формат/Информация : Audio Coding 3
Коммерческое название : Dolby Digital
Идентификатор кодека : A_AC3
Продолжительность : 1 ч. 34 м.
Вид битрейта : Постоянный
Битрейт : 192 Кбит/сек
Каналы : 2 канала
ChannelLayout : L R
Частота : 48,0 КГц
Частота кадров : 31,250 кадров/сек (1536 SPF)
Метод сжатия : С потерями
Размер потока : 129 Мбайт (3%)
Заголовок : original
Язык : French
ServiceKind/String : Complete Main
Default : Нет
Forced : Нет

Текст
Идентификатор : 5
Формат : UTF-8
Идентификатор кодека : S_TEXT/UTF8
Идентификатор кодека/Информация : UTF-8 Plain Text
Продолжительность : 1 ч. 33 м.
Битрейт : 88 бит/сек
ElementCount : 1379
Размер потока : 60,2 Кбайт (0%)
Заголовок : французские
Язык : French
Default : Нет
Forced : Нет

Меню
00:00:00.000 : :Chapter 01
00:00:02.000 : :Chapter 02
00:00:12.083 : :Chapter 03
00:00:44.750 : :Chapter 04
00:09:15.124 : :Chapter 05
00:18:08.750 : :Chapter 06
00:31:38.541 : :Chapter 07
00:37:03.125 : :Chapter 08
00:44:07.541 : :Chapter 09
00:51:59.375 : :Chapter 10
00:59:21.916 : :Chapter 11
01:13:37.541 : :Chapter 12
01:23:27.833 : :Chapter 13
piratbit.org



Скачать Сильные мира сего через торрент https://b.radikal.ru/b28/2001/05/e8c43fca4abf.jpg Скачать фильм Сильные мира сего через торрент бесплантно в хорошем качестве О фильме: Мультимиллионер Ноэль ворочает делами процветающей бизнес-империи, имеющей свой интерес в самых разных отраслях, вплоть до ... 10 10 1
Торрент: Зарегистрирован [2020-01-19 03:47] · скачан: 2 раз
Статус: √ проверено
Размер: 4.56 GB
Как cкачать? Как скачать Сильные мира сего через торрент | qTorrent

% Раздел Тема Автор DL S | L
Классика зарубежного кино [ 12.28 GB ] Сильные мира сего / Les grandes familles [1958 BDRip 1080p by msltel] DUB AVO msltel Скачать
1 | 0

28-11-2019 20:33  

Отключить всю рекламу на сайте

19-01-2020 15:52 Сильные мира сего Скачать торрент  

Жан Габен крут .piratbit.org



    Дорогой пользователь! Огромная просьба, поблагодарите релизера, оцените раздачу и оставьте свои комментарий, если Вы скачали Сильные мира сего через торрент бесплатно! Внесите свою лепту в развитие PiratBit!
    Комментировать посты могут только пользователи прошедшие не сложную регистрацию
    Показать сообщения:    

    Сильные мира сего через торрент
    Скачать бесплатно Сильные мира сего
    Сильные мира сего скачать торрент
    Сильные мира сего смотреть онлайн
    Cкачать фильм Сильные мира сего бесплатно
    Сильные мира сего скачать торрент в хорошем качестве
    Сильные мира сего смотреть онлайн бесплатно в хорошем качестве


    Вы не можете начинать темы
    Вы не можете отвечать на сообщения
    Вы не можете редактировать свои сообщения
    Вы не можете удалять свои сообщения
    Вы не можете голосовать в опросах
    Вы не можете прикреплять файлы к сообщениям
    Вы можете скачивать файлы