Достать ножи: Стеклянная луковица

MVO

Добыча

Дубляж

Уэнсдэй

1 сезон

Тор

Дубляж

13 клиническая

1 сезон

Жестокая ночь

MVO

Одни из нас

1 сезон

Deluxe

pack

Рекомендуем

30

Пиратка

ВАЖНО

ВАЖНО

Ghostwire

Пиратка

jed

RePack

nioh2

RePack

RDR2

RePack

NEED FOR SPEED™ PAYBACK

RePack

скачать торрент

Кинопоиск HD

Острые козырьки 6 сезон

6 сезон

FAR CRY 6

RePack

скачать торрент

Лицензия

скачать торрент

MVO

1

1 сезон

скачать торрент

1 сезон

скачать торрент

Лицензия

  

Терминатор: Темные судьбы / Terminator: Dark Fate (Тим Миллер) [2019, фантастика, боевик, приключения, UHD BDRemux 2160p, (Dolby Vision TV)] Дубляж [iTunes]

Терминатор: Темные судьбы через торрент piratbit.org

Раздают: 1 [ 0 KB/s ]
Размер: 48.52 GB | Добавлен: 3 года назад | Торрент скачан:361 раз
Смотреть онлайн | Скачать | Поддержите нас   

19-01-2020 16:33 Терминатор: Темные судьбы Скачать торрент  

Терминатор: Темные судьбы | Terminator: Dark Fate
Год выпуска: 2019
Страна: США, Китай
Студия: Paramount Pictures, Twentieth Century Fox, Skydance Media
Жанр: фантастика, боевик, приключения
Продолжительность: 02:08:05
Перевод: Дублированный | iTunes
Субтитры: Русские (Forced, отдельно)

Режиссер: Тим Миллер

rating

В ролях: Арнольд Шварценеггер, Маккензи Дэвис, Эдвард Ферлонг, Линда Хэмилтон, Том Хоппер, Кассандра Старр, Наталия Рейес, Гэбриел Луна, Бретт Азар, Диего Бонета

Описание: Мексика. Милая девушка Даниэла Рамос, а для друзей просто Дани, вместе с братом приходит с утра работать на завод, но там выясняется, что их вскоре заменят автоматикой. И это не единственная угроза, которую представляют для девушки машины: тут же на неё нападает присланная из будущего и практически неубиваемая модель терминатора REV-9. Но на защиту Дани встает Грэйс — тоже прибывшая из будущего женщина, модифицировавшая свои боевые характеристики до терминаторского уровня. Вскоре к ним на помощь придёт и Сара Коннор, которая теперь превратилась в настоящую охотницу на роботов-убийц.

Качество: UHD BDRemux 2160p | Dolby Vision TV
Формат: MP4

Видео: 3840x2160 at 23.976 fps, MPEG-H HEVC HDR, Dolby Vision Video, 48700 kbps avg
Аудио: 48 kHz, AC3, 5.1, 384 Kbps | Дублированный | RUS |
Данный вид релизов (контейнер MP4) предназначен для встроенного в ТВ (соответственно, с поддержкой DV) плеер.
Т.Е. Можно использовать как USB flash/HDD, так и DLNA / Plex - подобные сервисы/программы. дополнительный-внешний плеер не обязателен.

Внимание!
На моделях LG 2016 возможны сюрпризы "через раз", 2017-2018 должно идти без сюрпризов )
скриншот  скриншот  скриншот  скриншот  скриншот  

General
Complete name : D:Video222Terminator.Dark.Fate.2019.BDREMUX.2160p.DV_TV.HDR.seleZenTerminator.Dark.Fate.2019.BDREMUX.2160p.DV_TV.HDR.seleZen.mp4
Format : MPEG-4
Format profile : Base Media / Version 2
Codec ID : mp42 (mp42/dby1/isom)
File size : 48.5 GiB
Duration : 2 h 8 min
Overall bit rate : 54.2 Mb/s
Encoded date : UTC 2020-01-31 00:25:42
Tagged date : UTC 2020-01-31 00:25:42

Video #1
ID : 1
Format : HEVC
Format/Info : High Efficiency Video Coding
Format profile : Main 10@L5.1@High
HDR format : SMPTE ST 2086, HDR10 compatible
Codec ID : hev1
Codec ID/Info : High Efficiency Video Coding
Duration : 2 h 8 min
Bit rate : 48.7 Mb/s
Width : 3 840 pixels
Height : 2 160 pixels
Display aspect ratio : 16:9
Frame rate mode : Constant
Frame rate : 23.976 (24000/1001) FPS
Color space : YUV
Chroma subsampling : 4:2:0 (Type 2)
Bit depth : 10 bits
Bits/(Pixel*Frame) : 0.245
Stream size : 43.6 GiB (90%)
Default : No
Encoded date : UTC 2020-01-31 00:25:42
Tagged date : UTC 2020-01-31 00:25:42
Color range : Limited
Color primaries : BT.2020
Transfer characteristics : PQ
Matrix coefficients : BT.2020 non-constant
Mastering display color pri : Display P3
Mastering display luminance : min: 0.0001 cd/m2, max: 1000 cd/m2
Maximum Content Light Level : 1000 cd/m2
Maximum Frame-Average Light : 446 cd/m2
Codec configuration box : hvcC

Video #2
ID : 2
Format : HEVC
Format/Info : High Efficiency Video Coding
Format profile : Main 10@L5.1@High
HDR format : Dolby Vision, Version 1.0, dvhe.07.06, EL+RPU / SMPTE ST 2086, HDR10 compatible
Codec ID : dvhe
Codec ID/Info : High Efficiency Video Coding with Dolby Vision
Duration : 2 h 8 min
Bit rate : 5 130 kb/s
Width : 1 920 pixels
Height : 1 080 pixels
Display aspect ratio : 16:9
Frame rate mode : Constant
Frame rate : 23.976 (24000/1001) FPS
Color space : YUV
Chroma subsampling : 4:2:0 (Type 2)
Bit depth : 10 bits
Bits/(Pixel*Frame) : 0.103
Stream size : 4.59 GiB (9%)
Default : No
Encoded date : UTC 2020-01-31 00:25:42
Tagged date : UTC 2020-01-31 00:25:42
Color range : Limited
Color primaries : BT.2020
Transfer characteristics : PQ
Matrix coefficients : BT.2020 non-constant
Mastering display color pri : Display P3
Mastering display luminance : min: 0.0001 cd/m2, max: 1000 cd/m2
Codec configuration box : hvcC+dvcC

Audio
ID : 3
Format : AC-3
Format/Info : Audio Coding 3
Commercial name : Dolby Digital
Codec ID : ac-3
Duration : 2 h 8 min
Bit rate mode : Constant
Bit rate : 384 kb/s
Channel(s) : 6 channels
Channel layout : L R C LFE Ls Rs
Sampling rate : 48.0 kHz
Frame rate : 31.250 FPS (1536 SPF)
Compression mode : Lossy
Stream size : 352 MiB (1%)
Language : Russian
Service kind : Complete Main
Default : No
Encoded date : UTC 2020-01-31 00:25:42
Tagged date : UTC 2020-01-31 00:25:42




Скачать Терминатор: Темные судьбы через торрент https://img15.lostpic.net/2020/01/30/cf053b75befc8cce6d12ebd8f50da9bc.jpg Скачать, смотреть онлайн Терминатор: Темные судьбы бесплантно в хорошем качестве Описание: Мексика. Милая девушка Даниэла Рамос, а для друзей просто Дани, вместе с братом приходит с утра работать на завод, но там ... 9.3 10 16
Info! Золотая раздача, скачанное не засчитывается.
Торрент: Зарегистрирован [2020-01-31 02:56] · скачан: 361 раз
Статус: √ проверено
Размер: 48.52 GB
Как cкачать? Как скачать Терминатор: Темные судьбы через торрент | UTorrent

% Раздел Тема Автор DL S | L
Фильмы (HD 720p, 1080p) (48-60 fps) [ 4.7 GB ] Терминатор: Темные судьбы / Terminator: Dark Fate | iTunes | 720p / 60 FPS iTunes slaventi-69 Скачать
3 | 0
Фильмы 2019-2020 [DVDrip, WEB-DLRip, HDrip] (DUB, MVO) [ 2.13 GB ] Терминатор: Темные судьбы / Terminator: Dark Fate | Лицензия | BDRip Twi7ter Скачать
7 | 0
Фильмы 2019-2020 [DVDrip, WEB-DLRip, HDrip] (DUB, MVO) [ 1.46 GB ] Терминатор: Темные судьбы / Terminator: Dark Fate | Лицензия | BDRip Twi7ter Скачать
4 | 0

28-11-2019 20:33  


Отключить вcю реклaмy на сайте, в т.ч. и в плеере онлайн просмотра!

10-02-2020 04:37 Терминатор: Темные судьбы Скачать торрент  

На TV JVC 2019 г.в не воспроизводится!



13-02-2020 12:25 Терминатор: Темные судьбы Скачать торрент  

Snouman писал(а):

На TV JVC 2019 г.в не воспроизводится!

HEVC, h265 кодек скорее всего нужен...



16-02-2020 08:52 Терминатор: Темные судьбы Скачать торрент  

Ничем воспроизвести не могу...



17-02-2020 10:54 Терминатор: Темные судьбы Скачать торрент  

sony kd55ag8 полет нормальный,качество картинки просто космос



    Дорогой пользователь! Огромная просьба, поблагодарите релизера, оцените раздачу и оставьте свои комментарий, если Вы скачали Терминатор: Темные судьбы через торрент бесплатно!!
    Комментировать посты могут только пользователи прошедшие не сложную регистрацию
    Показать сообщения:    


    Терминатор: Темные судьбы через торрент
    Скачать бесплатно Терминатор: Темные судьбы
    Терминатор: Темные судьбы скачать торрент
    Терминатор: Темные судьбы смотреть онлайн
    Cкачать фильм Терминатор: Темные судьбы бесплатно
    Терминатор: Темные судьбы скачать торрент в хорошем качестве
    Терминатор: Темные судьбы смотреть онлайн бесплатно в хорошем качестве
    Вы не можете начинать темы
    Вы не можете отвечать на сообщения
    Вы не можете редактировать свои сообщения
    Вы не можете удалять свои сообщения
    Вы не можете голосовать в опросах
    Вы не можете прикреплять файлы к сообщениям
    Вы можете скачивать файлы
    Терминатор: Темные судьбы / Terminator: Dark Fate [2019, фантастика, боевик, приключения, UHD BDRemux 2160p, ] Дубляж [iTunes] смотреть онлайн, скачать торрент picoco.icu