Лицензия

MVO

1

1 сезон

Лицензия

Лицензия

13

MVO

1 сезон

Deluxe Edition

pack

Рекомендуем

30

Repack

ВАЖНО

ВАЖНО

Ghostwire

RePack

jed

RePack

fifa19

RePack

RDR2

RePack

NEED FOR SPEED™ PAYBACK

RePack

Кинопоиск HD

 Острые козырьки 6 сезон

6 сезон

FAR CRY 6

RePack

Лицензия

MVO

1

1 сезон

1 сезон

Лицензия

  

Ждите нас на рассвете (Эмиль Лотяну) [1964, СССР, драма, VHSRip от AVP Studio]

Ждите нас на рассвете через торрент piratbit.org

Раздают: 1 [ 0 KB/s ]
Размер: 1.09 GB | Добавлен: 2 года 8 мес. назад | Торрент скачан:19 раз
Смотреть онлайн Ждите нас на рассвете | Скачать   

20-01-2020 08:10 Ждите нас на рассвете Скачать торрент  

Ждите нас на рассвете
Страна: СССР
Производство: Молдова-фильм

Жанр: драма, история
Год выпуска: 1964
Продолжительность: 01:27:53

Перевод: Не требуется
Cубтитры: нет
Оригинальная аудиодорожка: русский

Режиссер: Эмиль Лотяну

В ролях:
Илие Гуцу, Валерий Панарин, Ион Шкуря, Думитру Карачобану, Владимир Волчик, Юлиан Кодэу...
Об актёрах подробней

Описание:
Драматическая история похода отряда Иллариона Няге, одного из помощников Г. И. Котовского, к устью Дуная для вывоза тайного склада оружия. События происходят в 1919 году на территории Бессарабии, оккупированной войсками Румынии…

Исходник: VHS
Качество видео: VHSRip
Формат видео: AVI

Видео: 704x528 (4:3), 25,000 кадров/сек, XviD ~ 1573 kbps avg, 0.169 bit/pixel
Аудио: 48 kHz, Dolby Digital AC3 2.0, 192 kbps

Раздача от:
Общее
Полное имя : ZHdite.nas.na.rassvete.1964.VHSRip_[New-team]_by_AVP_Studio.avi
Формат : AVI
Формат/Информация : Audio Video Interleave
Размер файла : 1,09 Гбайт
Продолжительность : 1 ч. 27 м.
Общий поток : 1775 Кбит/сек
Программа кодирования : VirtualDubMod 1.5.10.3 | www.virtualdub-fr.org || (build 2550/release)
Библиотека кодирования : VirtualDubMod build 2550/release

Видео
Идентификатор : 0
Формат : MPEG-4 Visual
Профиль формата : Advanced Simple@L5
Настройки формата : BVOP1 / Custom Matrix
Параметр BVOP формата : 1
Параметр QPel формата : Нет
Параметр GMC формата : Без точки перехода
Параметр матрицы формата : Выборочная
Идентификатор кодека : XVID
Идентификатор кодека/Подсказка : XviD
Продолжительность : 1 ч. 27 м.
Битрейт : 1573 Кбит/сек
Ширина : 704 пикселя
Высота : 528 пикселей
Соотношение сторон : 4:3
Частота кадров : 25,000 кадров/сек
Цветовое пространство : YUV
Субдискретизация насыщенности : 4:2:0
Битовая глубина : 8 бит
Тип развёртки : Прогрессивная
Метод сжатия : С потерями
Бит/(Пиксели*Кадры) : 0.169
Размер потока : 989 Мбайт (89%)
Библиотека кодирования : XviD 73

Аудио
Идентификатор : 1
Формат : AC-3
Формат/Информация : Audio Coding 3
Коммерческое название : Dolby Digital
Идентификатор кодека : 2000
Продолжительность : 1 ч. 27 м.
Вид битрейта : Постоянный
Битрейт : 192 Кбит/сек
Каналы : 2 канала
ChannelLayout : L R
Частота : 48,0 КГц
Частота кадров : 31,250 кадров/сек (1536 SPF)
Битовая глубина : 16 бит
Метод сжатия : С потерями
Размер потока : 121 Мбайт (11%)
Выравнивание : Разделение по промежуткам
Продолжительность промежутка : 40 мс. (1,00 видеокадр)
Время предзагрузки промежутка : 500 мс



Скачать Ждите нас на рассвете через торрент http://b.radikal.ru/b20/2001/cf/c54392bbc2e3.png Скачать, смотреть онлайн Ждите нас на рассвете бесплантно в хорошем качестве Описание:Драматическая история похода отряда Иллариона Няге, одного из помощников Г. И. Котовского, к устью Дуная для вывоза тайного склада ... 5 10 1
Торрент: Зарегистрирован [2020-01-20 08:10] · скачан: 19 раз
Статус: √ проверено
Размер: 1.09 GB
Как cкачать? Как скачать Ждите нас на рассвете через торрент | UTorrent

% Раздел Тема Автор DL S | L
Кино СССР [ 1.09 GB ] Ждите нас на рассвете | | Ждите нас на рассвете (Эмиль Лотяну AVP Studio Скачать
1 | 0

28-11-2019 20:33  

Отключить вcю реклaмy на сайте

    Дорогой пользователь! Огромная просьба, поблагодарите релизера, оцените раздачу и оставьте свои комментарий, если Вы скачали Ждите нас на рассвете через торрент бесплатно!!
    Комментировать посты могут только пользователи прошедшие не сложную регистрацию
    Показать сообщения:    


    Ждите нас на рассвете через торрент
    Скачать бесплатно Ждите нас на рассвете
    Ждите нас на рассвете скачать торрент
    Ждите нас на рассвете смотреть онлайн
    Cкачать фильм Ждите нас на рассвете бесплатно
    Ждите нас на рассвете скачать торрент в хорошем качестве
    Ждите нас на рассвете смотреть онлайн бесплатно в хорошем качестве
    Вы не можете начинать темы
    Вы не можете отвечать на сообщения
    Вы не можете редактировать свои сообщения
    Вы не можете удалять свои сообщения
    Вы не можете голосовать в опросах
    Вы не можете прикреплять файлы к сообщениям
    Вы можете скачивать файлы