Лицензия

MVO

1

1 сезон

Лицензия

Лицензия

13

MVO

1 сезон

Deluxe Edition

pack

Рекомендуем

30

Repack

ВАЖНО

ВАЖНО

Ghostwire

RePack

jed

RePack

fifa19

RePack

RDR2

RePack

NEED FOR SPEED™ PAYBACK

RePack

Кинопоиск HD

 Острые козырьки 6 сезон

6 сезон

FAR CRY 6

RePack

Лицензия

MVO

1

1 сезон

1 сезон

Лицензия

  

Ждите нас на рассвете (Эмиль Лотяну) [1964, СССР, драма, VHSRip-AVC от AVP Studio]

Ждите нас на рассвете через торрент piratbit.org

Качают: 1 [ 0 KB/s ]
Размер: 1.09 GB | Добавлен: 2 года 8 мес. назад | Торрент скачан:33 раза
Смотреть онлайн Ждите нас на рассвете | Скачать   

20-01-2020 08:11 Ждите нас на рассвете Скачать торрент  

Ждите нас на рассвете
Страна: СССР
Производство: Молдова-фильм

Жанр: драма, история
Год выпуска: 1964
Продолжительность: 01:27:53

Перевод: Не требуется
Cубтитры: нет
Оригинальная аудиодорожка: русский

Режиссер: Эмиль Лотяну

В ролях:
Илие Гуцу, Валерий Панарин, Ион Шкуря, Думитру Карачобану, Владимир Волчик, Юлиан Кодэу...
Об актёрах подробней

Описание:
Драматическая история похода отряда Иллариона Няге, одного из помощников Г. И. Котовского, к устью Дуная для вывоза тайного склада оружия. События происходят в 1919 году на территории Бессарабии, оккупированной войсками Румынии…

Исходник: VHS
Качество видео: VHSRip-AVC
Формат видео: MKV

Видео: 704->760x570 (4:3), 25,000 кадров/сек, H264 ~ 1580 kbps avg, 0.157 bit/pixel
Аудио: 48 kHz, Dolby Digital AC3 2.0, 192 kbps

Раздача от:
Общее
Полное имя : ZHdite.nas.na.rassvete.1964.VHSRip-AVC_[New-team]_by_AVP_Studio.mkv
Формат : Matroska
Версия формата : Version 2
Размер файла : 1,09 Гбайт
Продолжительность : 1 ч. 27 м.
Общий поток : 1774 Кбит/сек
Дата кодирования : UTC 2020-01-13 14:06:27
Программа кодирования : mkvmerge v6.1.0 ('Old Devil') built on Mar 4 2013 09:10:42
Библиотека кодирования : libebml v1.3.0 + libmatroska v1.4.0

Видео
Идентификатор : 1
Формат : AVC
Формат/Информация : Advanced Video Codec
Профиль формата : High@L4.1
Настройки формата : CABAC / 10 Ref Frames
Параметр CABAC формата : Да
Параметр RefFrames формата : 10 кадров
Идентификатор кодека : V_MPEG4/ISO/AVC
Продолжительность : 1 ч. 27 м.
Битрейт : 1580 Кбит/сек
Ширина : 704 пикселя
Высота : 570 пикселей
Соотношение сторон : 4:3
Режим частоты кадров : Постоянный
Частота кадров : 25,000 кадров/сек
Цветовое пространство : YUV
Субдискретизация насыщенности : 4:2:0
Битовая глубина : 8 бит
Тип развёртки : Прогрессивная
Бит/(Пиксели*Кадры) : 0.157
Размер потока : 972 Мбайт (87%)
Библиотека кодирования : x264 core 159 r2991 1771b55
Настройки программы : cabac=1 / ref=10 / deblock=1:-2:-1 / analyse=0x3:0x113 / me=umh / subme=10 / psy=1 / psy_rd=1.00:0.00 / mixed_ref=1 / me_range=32 / chroma_me=1 / trellis=2 / 8x8dct=1 / cqm=0 / deadzone=21,11 / fast_pskip=1 / chroma_qp_offset=-2 / threads=6 / lookahead_threads=1 / sliced_threads=0 / nr=0 / decimate=0 / interlaced=0 / bluray_compat=0 / constrained_intra=0 / bframes=8 / b_pyramid=2 / b_adapt=2 / b_bias=0 / direct=3 / weightb=1 / open_gop=0 / weightp=2 / keyint=250 / keyint_min=25 / scenecut=40 / intra_refresh=0 / rc=2pass / mbtree=0 / bitrate=1580 / ratetol=1.0 / qcomp=0.60 / qpmin=0 / qpmax=69 / qpstep=4 / cplxblur=20.0 / qblur=0.5 / ip_ratio=1.40 / pb_ratio=1.30 / aq=1:1.00
Default : Да
Forced : Нет

Аудио
Идентификатор : 2
Формат : AC-3
Формат/Информация : Audio Coding 3
Коммерческое название : Dolby Digital
Идентификатор кодека : A_AC3
Продолжительность : 1 ч. 27 м.
Вид битрейта : Постоянный
Битрейт : 192 Кбит/сек
Каналы : 2 канала
ChannelLayout : L R
Частота : 48,0 КГц
Частота кадров : 31,250 кадров/сек (1536 SPF)
Битовая глубина : 16 бит
Метод сжатия : С потерями
Размер потока : 121 Мбайт (11%)
Default : Да
Forced : Нет



Скачать Ждите нас на рассвете через торрент http://b.radikal.ru/b20/2001/cf/c54392bbc2e3.png Скачать, смотреть онлайн Ждите нас на рассвете бесплантно в хорошем качестве Описание:Драматическая история похода отряда Иллариона Няге, одного из помощников Г. И. Котовского, к устью Дуная для вывоза тайного склада ... 9 10 1
Торрент: Зарегистрирован [2020-01-20 08:11] · скачан: 33 раз
Статус: √ проверено
Размер: 1.09 GB
Как cкачать? Как скачать Ждите нас на рассвете через торрент | UTorrent

% Раздел Тема Автор DL S | L
Кино СССР [ 1.09 GB ] Ждите нас на рассвете | | Ждите нас на рассвете (Эмиль Лотяну AVP Studio Скачать
2 | 0

28-11-2019 20:33  

Отключить вcю реклaмy на сайте

    Дорогой пользователь! Огромная просьба, поблагодарите релизера, оцените раздачу и оставьте свои комментарий, если Вы скачали Ждите нас на рассвете через торрент бесплатно!!
    Комментировать посты могут только пользователи прошедшие не сложную регистрацию
    Показать сообщения:    


    Ждите нас на рассвете через торрент
    Скачать бесплатно Ждите нас на рассвете
    Ждите нас на рассвете скачать торрент
    Ждите нас на рассвете смотреть онлайн
    Cкачать фильм Ждите нас на рассвете бесплатно
    Ждите нас на рассвете скачать торрент в хорошем качестве
    Ждите нас на рассвете смотреть онлайн бесплатно в хорошем качестве
    Вы не можете начинать темы
    Вы не можете отвечать на сообщения
    Вы не можете редактировать свои сообщения
    Вы не можете удалять свои сообщения
    Вы не можете голосовать в опросах
    Вы не можете прикреплять файлы к сообщениям
    Вы можете скачивать файлы