Доктор Стрэндж

Лицензия

Добыча

Дубляж

Уэнсдэй

1 сезон

Тор

Дубляж

В эфире

Дубляж

Там, где раки поют

MVO

Властелин колец

1 сезон

Deluxe

pack

Рекомендуем

30

Пиратка

ВАЖНО

ВАЖНО

Ghostwire

Пиратка

jed

RePack

nioh2

RePack

RDR2

RePack

NEED FOR SPEED™ PAYBACK

RePack

скачать торрент

Кинопоиск HD

Острые козырьки 6 сезон

6 сезон

FAR CRY 6

RePack

скачать торрент

Лицензия

скачать торрент

MVO

1

1 сезон

скачать торрент

1 сезон

скачать торрент

Лицензия

  

Доктор Сон / Doctor Sleep (Майк Флэнеган) [2019, Ужасы, фэнтези, триллер, драма, BDRip-AVC] [Театральная версия] Дубляж (rus, ukr) [Лицензия]

Доктор Сон через торрент piratbit.org

Размер: 2.85 GB | Добавлен: 2 года 10 мес. назад | Торрент скачан:244 раза
Смотреть онлайн | Скачать   

24-01-2020 10:29 Доктор Сон Скачать торрент  

Доктор Сон | Doctor Sleep
Год выпуска: 2019
Страна: США, Великобритания
Студия: Warner Bros., Intrepid Pictures, Vertigo Entertainment
Жанр: Ужасы, фэнтези, триллер, драма
Продолжительность: 02:32:01
Перевод: Дублированное | Лицензия Blu-ray 4K EUR
Субтитры: Русские (Forced, full), украинские (Forced), английские

Режиссер: Майк Флэнеган

rating

В ролях: Юэн Макгрегор, Ребекка Фергюсон, Дэнни Ллойд, Карел Стрёйкен, Джейкоб Тремблей, Эмили Элин Линд, Зан Маккларнон, Клифф Кёртис, Брюс Гринвуд, Александра Эссоу

Описание: Прошло много лет с тех пор, как мальчик-ясновидец Дэнни Торранс пережил кошмарный сезон в отеле «Оверлук», где стал свидетелем безумия и гибели своего отца. Повзрослев, но не оправившись от детской травмы, Дэнни ведёт жизнь маргинала-алкоголика. С ним устанавливает связь другая «сияющая» девочка, Абра. Ей потребуется помощь Дэнни, чтобы не стать жертвой так называемого «Истинного Узла» - группы охотников за одарёнными детьми.

Качество: BDRip-AVC | Театральная версия
Формат: MKV

Видео: 1024x554 (1,85:1), 23,976 fps, MPEG-4 AVC ~ 1602 Kbps avg, 0.118 bit/pixel
Аудио: AC3, 48 kHz, 6 ch, ~448.00 kbps avg | русский | Blu-ray 4K EUR
Аудио: AC3, 48 kHz, 2 ch, ~192.00 kbps avg | украинский |
Аудио: AC3, 48 kHz, 6 ch, ~448.00 kbps avg | английский | Оригинал
скриншот  скриншот  скриншот  скриншот  скриншот  

Общее
Уникальный идентификатор : 327846735576003365340890001239238933414 (0xF6A4FC099A94F442F23060FEC06E7BA6)
Полное имя : Doctor.Sleep.2019.TC.BDRip.x.264.mkv
Формат : Matroska
Версия формата : Version 4
Размер файла : 2,85 Гбайт
Продолжительность : 2 ч. 32 м.
Общий поток : 2686 Кбит/сек
Название фильма : Доктор Сон / Doctor Sleep (2019)
Дата кодирования : UTC 2020-01-27 12:34:10
Программа кодирования : mkvmerge v41.0.0 ('Smarra') 64-bit
Библиотека кодирования : libebml v1.3.9 + libmatroska v1.5.2
Обложка : Yes
Attachments : cover.jpg

Видео
Идентификатор : 1
Формат : AVC
Формат/Информация : Advanced Video Codec
Профиль формата : High@L4.1
Настройки формата : CABAC / 9 Ref Frames
Параметр CABAC формата : Да
Параметр RefFrames формата : 9 кадров
Идентификатор кодека : V_MPEG4/ISO/AVC
Продолжительность : 2 ч. 32 м.
Битрейт : 1602 Кбит/сек
Ширина : 1024 пикселя
Высота : 554 пикселя
Соотношение сторон : 1,85:1
Режим частоты кадров : Постоянный
Частота кадров : 23,976 (23976/1000) кадра/сек
Цветовое пространство : YUV
Субдискретизация насыщенности : 4:2:0
Битовая глубина : 8 бит
Тип развёртки : Прогрессивная
Бит/(Пиксели*Кадры) : 0.118
Размер потока : 1,69 Гбайт (59%)
Заголовок : #stillet
Библиотека кодирования : x264 core 152 r2851bm ba24899
Настройки программы : cabac=1 / ref=9 / deblock=1:-3:-3 / analyse=0x3:0x113 / me=umh / subme=11 / psy=1 / psy_rd=1.00:0.15 / mixed_ref=1 / me_range=32 / chroma_me=1 / trellis=2 / 8x8dct=1 / cqm=0 / deadzone=21,11 / fast_pskip=0 / chroma_qp_offset=-3 / threads=8 / lookahead_threads=3 / sliced_threads=0 / nr=0 / decimate=0 / interlaced=0 / bluray_compat=0 / constrained_intra=0 / bframes=11 / b_pyramid=2 / b_adapt=2 / b_bias=0 / direct=3 / weightb=1 / open_gop=0 / weightp=2 / keyint=240 / keyint_min=23 / scenecut=40 / intra_refresh=0 / rc_lookahead=40 / rc=2pass / mbtree=0 / bitrate=1602 / ratetol=1.0 / qcomp=0.60 / qpmin=0 / qpmax=69 / qpstep=4 / cplxblur=20.0 / qblur=0.5 / vbv_maxrate=50000 / vbv_bufsize=62500 / nal_hrd=none / filler=0 / ip_ratio=1.40 / pb_ratio=1.30 / aq=1:1.00
Язык : English
Default : Да
Forced : Нет

Аудио #1
Идентификатор : 2
Формат : AC-3
Формат/Информация : Audio Coding 3
Коммерческое название : Dolby Digital
Идентификатор кодека : A_AC3
Продолжительность : 2 ч. 32 м.
Вид битрейта : Постоянный
Битрейт : 448 Кбит/сек
Каналы : 6 каналов
ChannelLayout : L R C LFE Ls Rs
Частота : 48,0 КГц
Частота кадров : 31,250 кадров/сек (1536 SPF)
Метод сжатия : С потерями
Размер потока : 487 Мбайт (17%)
Заголовок : Дубляж | Blu-ray 4K EUR
Язык : Russian
Default : Да
Forced : Да

Аудио #2
Идентификатор : 3
Формат : AC-3
Формат/Информация : Audio Coding 3
Коммерческое название : Dolby Digital
Идентификатор кодека : A_AC3
Продолжительность : 2 ч. 32 м.
Вид битрейта : Постоянный
Битрейт : 192 Кбит/сек
Каналы : 2 канала
ChannelLayout : L R
Частота : 48,0 КГц
Частота кадров : 31,250 кадров/сек (1536 SPF)
Метод сжатия : С потерями
Размер потока : 209 Мбайт (7%)
Заголовок : iTunes
Язык : Ukrainian
Default : Нет
Forced : Нет

Аудио #3
Идентификатор : 4
Формат : AC-3
Формат/Информация : Audio Coding 3
Коммерческое название : Dolby Digital
Идентификатор кодека : A_AC3
Продолжительность : 2 ч. 32 м.
Вид битрейта : Постоянный
Битрейт : 448 Кбит/сек
Каналы : 6 каналов
ChannelLayout : L R C LFE Ls Rs
Частота : 48,0 КГц
Частота кадров : 31,250 кадров/сек (1536 SPF)
Метод сжатия : С потерями
Размер потока : 487 Мбайт (17%)
Заголовок : Original
Язык : English
Default : Нет
Forced : Нет

Текст #1
Идентификатор : 5
Формат : UTF-8
Идентификатор кодека : S_TEXT/UTF8
Идентификатор кодека/Информация : UTF-8 Plain Text
Продолжительность : 2 ч. 14 м.
Битрейт : 1 бит/сек
ElementCount : 42
Размер потока : 1,47 Кбайт (0%)
Заголовок : Forced
Язык : Russian
Default : Да
Forced : Да

Текст #2
Идентификатор : 6
Формат : UTF-8
Идентификатор кодека : S_TEXT/UTF8
Идентификатор кодека/Информация : UTF-8 Plain Text
Продолжительность : 2 ч. 25 м.
Битрейт : 60 бит/сек
ElementCount : 1656
Размер потока : 64,7 Кбайт (0%)
Заголовок : Full
Язык : Russian
Default : Нет
Forced : Нет

Текст #3
Идентификатор : 7
Формат : UTF-8
Идентификатор кодека : S_TEXT/UTF8
Идентификатор кодека/Информация : UTF-8 Plain Text
Продолжительность : 2 ч. 14 м.
Битрейт : 1 бит/сек
ElementCount : 43
Размер потока : 1,74 Кбайт (0%)
Заголовок : Forced
Язык : Ukrainian
Default : Нет
Forced : Нет

Текст #4
Идентификатор : 8
Формат : UTF-8
Идентификатор кодека : S_TEXT/UTF8
Идентификатор кодека/Информация : UTF-8 Plain Text
Продолжительность : 2 ч. 25 м.
Битрейт : 37 бит/сек
ElementCount : 1693
Размер потока : 39,7 Кбайт (0%)
Заголовок : Full
Язык : English
Default : Нет
Forced : Нет

Текст #5
Идентификатор : 9
Формат : UTF-8
Идентификатор кодека : S_TEXT/UTF8
Идентификатор кодека/Информация : UTF-8 Plain Text
Продолжительность : 2 ч. 25 м.
Битрейт : 42 бит/сек
ElementCount : 1943
Размер потока : 45,4 Кбайт (0%)
Заголовок : SDH
Язык : English
Default : Нет
Forced : Нет

Меню
00:00:00.000 : en:Chapter 01
00:10:36.302 : en:Chapter 02
00:19:44.350 : en:Chapter 03
00:29:23.345 : en:Chapter 04
00:39:51.931 : en:Chapter 05
00:49:47.318 : en:Chapter 06
00:58:24.710 : en:Chapter 07
01:06:00.748 : en:Chapter 08
01:11:00.756 : en:Chapter 09
01:20:35.497 : en:Chapter 10
01:27:07.013 : en:Chapter 11
01:35:13.458 : en:Chapter 12
01:44:01.902 : en:Chapter 13
01:52:52.724 : en:Chapter 14
02:01:22.734 : en:Chapter 15
02:08:01.507 : en:Chapter 16
02:17:27.156 : en:Chapter 17
02:23:06.703 : en:Chapter 18
02:26:22.107 : en:Chapter 19




Скачать Доктор Сон через торрент https://img15.lostpic.net/2020/01/23/85ad0f23a28ba8c79284d934c3daee87.jpg Скачать, смотреть онлайн Доктор Сон бесплантно в хорошем качестве Описание: Прошло много лет с тех пор, как мальчик-ясновидец Дэнни Торранс пережил кошмарный сезон в отеле «Оверлук», где стал свидетелем ... 9.4 10 14
Торрент: Зарегистрирован [2020-01-27 13:05] · скачан: 244 раз
Статус: √ проверено
Размер: 2.85 GB
Как cкачать? Как скачать Доктор Сон через торрент | UTorrent

% Раздел Тема Автор DL S | L
Фильмы 2019-2020 [DVDrip, WEB-DLRip, HDrip] (DUB, MVO) [ 1.46 GB ] Доктор Сон / Doctor Sleep | Лицензия | BDRip bober100 Скачать
1 | 0
Фильмы 2019-2020 [DVDrip, WEB-DLRip, HDrip] (DUB, MVO) [ 2.91 GB ] Доктор Сон / Doctor Sleep | Лицензия | BDRip bober100 Скачать
1 | 0
Фильмы (Blu-ray, BD-Remux, HDDVD) [ 40.57 GB ] Доктор Сон / Doctor Sleep | Лицензия | 1080p bober100 Скачать
1 | 0
Фильмы 2019-2020 [DVDrip, WEB-DLRip, HDrip] (DUB, MVO) [ 2.18 GB ] Доктор Сон / Doctor Sleep | Лицензия | HDRip Twi7ter Скачать
1 | 0
Фильмы (Blu-ray, BD-Remux, HDDVD) [ 30.65 GB ] Доктор Сон / Doctor Sleep | Лицензия | BD Remux 1080p bober100 Скачать
1 | 0
T Фильмы [HD 720p, 1080p] (Хороший звук DUB, MVO) [ 10.45 GB ] Доктор Сон / Doctor Sleep | iTunes | 1080p serega67 Скачать
1 | 1
Фильмы 2019-2020 [DVDrip, WEB-DLRip, HDrip] (DUB, MVO) [ 1.46 GB ] Доктор Сон / Doctor Sleep | Лицензия | HDRip Twi7ter Скачать
6 | 0

28-11-2019 20:33  


Отключить вcю реклaмy на сайте, в т.ч. и в плеере онлайн просмотра!

    Дорогой пользователь! Огромная просьба, поблагодарите релизера, оцените раздачу и оставьте свои комментарий, если Вы скачали Доктор Сон через торрент бесплатно!!
    Комментировать посты могут только пользователи прошедшие не сложную регистрацию
    Показать сообщения:    


    Доктор Сон через торрент
    Скачать бесплатно Доктор Сон
    Доктор Сон скачать торрент
    Доктор Сон смотреть онлайн
    Cкачать фильм Доктор Сон бесплатно
    Доктор Сон скачать торрент в хорошем качестве
    Доктор Сон смотреть онлайн бесплатно в хорошем качестве
    Вы не можете начинать темы
    Вы не можете отвечать на сообщения
    Вы не можете редактировать свои сообщения
    Вы не можете удалять свои сообщения
    Вы не можете голосовать в опросах
    Вы не можете прикреплять файлы к сообщениям
    Вы можете скачивать файлы
    Доктор Сон / Doctor Sleep [2019, Ужасы, фэнтези, триллер, драма, BDRip-AVC] [Театральная версия] Дубляж [Лицензия] смотреть онлайн, скачать торрент picoco.icu