Доктор Стрэндж

Лицензия

Добыча

Дубляж

Уэнсдэй

1 сезон

Тор

Дубляж

В эфире

Дубляж

Там, где раки поют

MVO

Властелин колец

1 сезон

Deluxe

pack

Рекомендуем

30

Пиратка

ВАЖНО

ВАЖНО

Ghostwire

Пиратка

jed

RePack

nioh2

RePack

RDR2

RePack

NEED FOR SPEED™ PAYBACK

RePack

скачать торрент

Кинопоиск HD

Острые козырьки 6 сезон

6 сезон

FAR CRY 6

RePack

скачать торрент

Лицензия

скачать торрент

MVO

1

1 сезон

скачать торрент

1 сезон

скачать торрент

Лицензия

  

Паранойя / Paranoia (Умберто Ленци) [1970, триллер, драма, детектив, BDRip 720p ] VO

Паранойя через торрент piratbit.org

Размер: 3.01 GB | Добавлен: 2 года 10 мес. назад | Торрент скачан:5 раз
Смотреть онлайн | Скачать   

26-01-2020 06:59 Паранойя Скачать торрент  

Название: Паранойя
Оригинальное название: Paranoia
Год выпуска: 1970
Страна: Италия, Франция, Испания
Жанр: триллер, драма, детектив
Продолжительность: 01:33:54
Перевод: любительский одноголосый
Режиссер: Умберто Ленци
В ролях: Кэрролл Бэйкер, Жан Сорель, Луис Давила, Альберто Дальбес, Марина Коффа, Анна Проклемер, Уго Бланко, Лиза Хальворсен, Мануэль Диаз Веласко, Жак Стани

Описание: Главная героиня фильма Хелен зарабатывает на жизнь автогонками. Однажды она попадает в крупную аварию, после которой врачи настоятельно советуют ей отказаться от всех вредных привычек, бросить гонки и вести спокойный образ жизни, без потрясений и стрессов. В день выхода из больницы она получает письмо от своего бывшего мужа Мориса, который приглашает её приехать к нему на виллу в Испанию. Недолго поколебавшись, она срывается из родного города и едет к нему. Приехав, она обнаруживает, что Морис женат на богатой и уже немолодой женщине Констанс и с удивлением узнаёт, что это приглашение написал вовсе не Морис, а его новая жена...



Качество: BDRip 720p
Формат: MKV
Видео: MPEG-4 AVC, 4197 Kбит/с, 1280x544
Аудио 1: русский, AC3, 192 kbps, 2 ch, 48 kHz [закадровый одноголосый, женский]
Аудио 2: итальянский, AC3, 192 kbps, 2 ch, 48 kHz [оригинал]
Субтитры 1: русские
Субтитры 2: английские
Главы/чаптеры
Общее
Уникальный идентификатор : 184709800233448930312453212719698281527 (0x8AF5D0437213A90FB0C05FDAE86E0437)
Полное имя : D:\Video\Паранойя.1970.BDRip 720p by msltel.mkv
Формат : Matroska
Версия формата : Version 4
Размер файла : 3,01 Гбайт
Продолжительность : 1 ч. 33 м.
Общий поток : 4583 Кбит/сек
Название фильма : Rip by msltel
Дата кодирования : UTC 2020-01-25 11:50:53
Программа кодирования : mkvmerge v8.2.0 ('World of Adventure') 64bit
Библиотека кодирования : libebml v1.3.1 + libmatroska v1.4.2

Видео
Идентификатор : 1
Формат : AVC
Формат/Информация : Advanced Video Codec
Профиль формата : High@L4.1
Настройки формата : CABAC / 9 Ref Frames
Параметр CABAC формата : Да
Параметр RefFrames формата : 9 кадров
Идентификатор кодека : V_MPEG4/ISO/AVC
Продолжительность : 1 ч. 33 м.
Битрейт : 4197 Кбит/сек
Ширина : 1280 пикселей
Высота : 544 пикселя
Соотношение сторон : 2,35:1
Режим частоты кадров : Постоянный
Частота кадров : 23,976 (24000/1001) кадра/сек
Цветовое пространство : YUV
Субдискретизация насыщенности : 4:2:0
Битовая глубина : 8 бит
Тип развёртки : Прогрессивная
Бит/(Пиксели*Кадры) : 0.251
Размер потока : 2,75 Гбайт (92%)
Библиотека кодирования : x264 core 157 r2969 d4099dd
Настройки программы : cabac=1 / ref=9 / deblock=1:-2:-2 / analyse=0x3:0x113 / me=umh / subme=11 / psy=1 / psy_rd=1.00:0.15 / mixed_ref=1 / me_range=32 / chroma_me=1 / trellis=2 / 8x8dct=1 / cqm=0 / deadzone=21,11 / fast_pskip=0 / chroma_qp_offset=-3 / threads=6 / lookahead_threads=1 / sliced_threads=0 / nr=0 / decimate=1 / interlaced=0 / bluray_compat=0 / constrained_intra=0 / bframes=10 / b_pyramid=2 / b_adapt=2 / b_bias=0 / direct=1 / weightb=1 / open_gop=0 / weightp=2 / keyint=230 / keyint_min=23 / scenecut=40 / intra_refresh=0 / rc_lookahead=40 / rc=crf / mbtree=0 / crf=21.4 / qcomp=0.60 / qpmin=0 / qpmax=69 / qpstep=4 / vbv_maxrate=50000 / vbv_bufsize=62500 / crf_max=0.0 / nal_hrd=none / filler=0 / ip_ratio=1.40 / pb_ratio=1.30 / aq=1:1.00
Язык : Italian
Default : Да
Forced : Нет

Аудио #1
Идентификатор : 2
Формат : AC-3
Формат/Информация : Audio Coding 3
Коммерческое название : Dolby Digital
Идентификатор кодека : A_AC3
Продолжительность : 1 ч. 33 м.
Вид битрейта : Постоянный
Битрейт : 192 Кбит/сек
Каналы : 2 канала
ChannelLayout : L R
Частота : 48,0 КГц
Частота кадров : 31,250 кадров/сек (1536 SPF)
Метод сжатия : С потерями
Размер потока : 129 Мбайт (4%)
Заголовок : VO (женский)
Язык : Russian
ServiceKind/String : Complete Main
Default : Да
Forced : Нет

Аудио #2
Идентификатор : 3
Формат : AC-3
Формат/Информация : Audio Coding 3
Коммерческое название : Dolby Digital
Идентификатор кодека : A_AC3
Продолжительность : 1 ч. 33 м.
Вид битрейта : Постоянный
Битрейт : 192 Кбит/сек
Каналы : 2 канала
ChannelLayout : L R
Частота : 48,0 КГц
Частота кадров : 31,250 кадров/сек (1536 SPF)
Метод сжатия : С потерями
Размер потока : 129 Мбайт (4%)
Заголовок : original
Язык : Italian
ServiceKind/String : Complete Main
Default : Нет
Forced : Нет

Текст #1
Идентификатор : 4
Формат : UTF-8
Идентификатор кодека : S_TEXT/UTF8
Идентификатор кодека/Информация : UTF-8 Plain Text
Продолжительность : 1 ч. 32 м.
Битрейт : 81 бит/сек
ElementCount : 842
Размер потока : 55,8 Кбайт (0%)
Заголовок : русские
Язык : Russian
Default : Нет
Forced : Нет

Текст #2
Идентификатор : 5
Формат : UTF-8
Идентификатор кодека : S_TEXT/UTF8
Идентификатор кодека/Информация : UTF-8 Plain Text
Продолжительность : 1 ч. 29 м.
Битрейт : 40 бит/сек
ElementCount : 942
Размер потока : 26,7 Кбайт (0%)
Заголовок : английские
Язык : English
Default : Нет
Forced : Нет

Меню
00:00:00.000 : en:Chapter 1
00:09:36.451 : en:Chapter 2
00:28:44.598 : en:Chapter 3
00:54:27.764 : en:Chapter 4
01:17:28.477 : en:Chapter 5
01:20:21.316 : en:Chapter 6



Скачать Паранойя через торрент https://d.radikal.ru/d31/2001/33/4e0fbe0476dc.jpg Скачать, смотреть онлайн Паранойя бесплантно в хорошем качестве Описание: Главная героиня фильма Хелен зарабатывает на жизнь автогонками. Однажды она попадает в крупную аварию, после которой врачи ... 5 10 1
Info! Золотая раздача, скачанное не засчитывается.
Торрент: Зарегистрирован [2020-01-26 06:59] · скачан: 5 раз
Статус: √ проверено
Размер: 3.01 GB
Как cкачать? Как скачать Паранойя через торрент | UTorrent

% Раздел Тема Автор DL S | L
Фильмы [HD 720p, 1080p] (Звук Cam, VO, DVO) [ 8.56 GB ] Паранойя / Paranoia | | 1080p msltel Скачать
1 | 0
Фильмы до 2000 г. [ 1.75 GB ] Паранойя / Paranoia | | BDRip-AVC msltel Скачать
1 | 0

28-11-2019 20:33  


Отключить вcю реклaмy на сайте, в т.ч. и в плеере онлайн просмотра!

    Дорогой пользователь! Огромная просьба, поблагодарите релизера, оцените раздачу и оставьте свои комментарий, если Вы скачали Паранойя через торрент бесплатно!!
    Комментировать посты могут только пользователи прошедшие не сложную регистрацию
    Показать сообщения:    


    Паранойя через торрент
    Скачать бесплатно Паранойя
    Паранойя скачать торрент
    Паранойя смотреть онлайн
    Cкачать фильм Паранойя бесплатно
    Паранойя скачать торрент в хорошем качестве
    Паранойя смотреть онлайн бесплатно в хорошем качестве
    Вы не можете начинать темы
    Вы не можете отвечать на сообщения
    Вы не можете редактировать свои сообщения
    Вы не можете удалять свои сообщения
    Вы не можете голосовать в опросах
    Вы не можете прикреплять файлы к сообщениям
    Вы можете скачивать файлы
    Паранойя / Paranoia [1970, триллер, драма, детектив, BDRip 720p ] VO смотреть онлайн, скачать торрент picoco.icu