Доктор Стрэндж

Лицензия

Добыча

MVO

Дом дракона

1 сезон

Тор

Лицензия

Мэверик

Лицензия

Там, где раки поют

MVO

Властелин колец

1 сезон

Ultimate

pack

Рекомендуем

30

Repack

ВАЖНО

ВАЖНО

Ghostwire

RePack

jed

RePack

nioh2

RePack

RDR2

RePack

NEED FOR SPEED™ PAYBACK

RePack

скачать торрент

Кинопоиск HD

Острые козырьки 6 сезон

6 сезон

FAR CRY 6

RePack

скачать торрент

Лицензия

скачать торрент

MVO

1

1 сезон

скачать торрент

1 сезон

скачать торрент

Лицензия

  

Мне двадцать лет / Заставе Ильича (Марлен Хуциев) [1964, СССР, драма, DVDRip-HEVC от AVP Studio]

Мне двадцать лет через торрент piratbit.org

Размер: 1.08 GB | Добавлен: 2 года 8 мес. назад | Торрент скачан:32 раза
Смотреть онлайн Мне двадцать лет | Скачать   

26-01-2020 10:04 Мне двадцать лет Скачать торрент  

Мне двадцать лет
Страна: СССР
Производство: Киностудия им. М. Горького

Жанр: драма
Год выпуска: 1964
Продолжительность: 01:35:25

Перевод: Не требуется
Cубтитры: нет
Оригинальная аудиодорожка: русский

Режиссер: Марлен Хуциев

В ролях:
Валентин Попов, Николай Губенко, Станислав Любшин, Марианна Вертинская, Лев Прыгунов, Евгений Майоров (II), Зинаида Зиновьева, Светлана Старикова, Т. Богданова, Людмила Селянская, Саша Блинов, Лев Золотухин, Пётр Щербаков, Геннадий Некрасов, Николай Захарченко...
Об актёрах подробней

Описание:
Вернувшись из армии, 20-летний Сергей устраивается на ТЭЦ и вливается в обычную жизнь. Каждый день он встречается и проводит время с друзьями детства — молодым семьянином Славой и весельчаком Николаем, а однажды с первого взгляда влюбляется в незнакомку в автобусе. Эти ребята — первое поколение советских людей, которое сомневается и ищет своё место в жизни.

Источник: DVD9 R5
Качество видео: DVDRip-HEVC
Формат видео: MKV

Видео: 712->764х572 (2,25:1), 25,000 fps, H265 ~ 1440 kbps avg, 0.140 bit/pixel
Аудио: 48 kHz, AAC LC 5.1, 192 kbps

Раздача от:
Общее
Полное имя : Mne.dvadcat.let.1964.DVDRip-HEVC_[New-team]_by_AVP_Studio.mkv
Формат : Matroska
Версия формата : Version 4
Размер файла : 1,08 Гбайт
Продолжительность : 1 ч. 35 м.
Общий поток : 1625 Кбит/сек
Название фильма : HEVC_[New-team]_by_AVP_Studio
Дата кодирования : UTC 2020-01-26 08:54:20
Программа кодирования : mkvmerge v39.0.0 ('In The Waiting Line') 64-bit
Библиотека кодирования : libebml v1.3.9 + libmatroska v1.5.2

Видео
Идентификатор : 1
Формат : HEVC
Формат/Информация : High Efficiency Video Coding
Профиль формата : Main@L3@Main
Идентификатор кодека : V_MPEGH/ISO/HEVC
Продолжительность : 1 ч. 35 м.
Битрейт : 1440 Кбит/сек
Ширина : 712 пикселей
Высота : 572 пикселей
Высота оригинала : 576 пикселя
Соотношение сторон : 4:3
Соотношение сторон в оригинале : 4:3
Режим частоты кадров : Постоянный
Частота кадров : 25,000 кадров/сек
Цветовое пространство : YUV
Субдискретизация насыщенности : 4:2:0
Битовая глубина : 8 бит
Бит/(Пиксели*Кадры) : 0.140
Размер потока : 983 Мбайт (89%)
Язык : Russian
Default : Да
Forced : Нет

Аудио
Идентификатор : 2
Формат : AAC LC
Формат/Информация : Advanced Audio Codec Low Complexity
Идентификатор кодека : A_AAC-2
Продолжительность : 1 ч. 35 м.
Битрейт : 183 Кбит/сек
Каналы : 6 каналов
ChannelLayout : C L R Ls Rs LFE
Частота : 48,0 КГц
Частота кадров : 46,875 кадров/сек (1024 SPF)
Метод сжатия : С потерями
Задержка видео : 9 мс.
Размер потока : 125 Мбайт (11%)
Язык : Russian
Default : Да
Forced : Нет



Скачать Мне двадцать лет через торрент http://b.radikal.ru/b17/2001/2d/e961377d6c7a.png Скачать, смотреть онлайн Мне двадцать лет бесплантно в хорошем качестве Описание:Вернувшись из армии, 20-летний Сергей устраивается на ТЭЦ и вливается в обычную жизнь. Каждый день он встречается и проводит время ... 5 10 1
Торрент: Зарегистрирован [2020-01-26 10:04] · скачан: 32 раз
Статус: √ проверено
Размер: 1.08 GB
Как cкачать? Как скачать Мне двадцать лет через торрент | UTorrent

% Раздел Тема Автор DL S | L
Кино СССР [ 1.26 GB ] Мне двадцать лет / Заставе Ильича | | DVDRip-AVC от AVP Studio AVP Studio Скачать
1 | 0

28-11-2019 20:33  

Отключить вcю реклaмy на сайте

    Дорогой пользователь! Огромная просьба, поблагодарите релизера, оцените раздачу и оставьте свои комментарий, если Вы скачали Мне двадцать лет через торрент бесплатно!!
    Комментировать посты могут только пользователи прошедшие не сложную регистрацию
    Показать сообщения:    


    Мне двадцать лет через торрент
    Скачать бесплатно Мне двадцать лет
    Мне двадцать лет скачать торрент
    Мне двадцать лет смотреть онлайн
    Cкачать фильм Мне двадцать лет бесплатно
    Мне двадцать лет скачать торрент в хорошем качестве
    Мне двадцать лет смотреть онлайн бесплатно в хорошем качестве
    Вы не можете начинать темы
    Вы не можете отвечать на сообщения
    Вы не можете редактировать свои сообщения
    Вы не можете удалять свои сообщения
    Вы не можете голосовать в опросах
    Вы не можете прикреплять файлы к сообщениям
    Вы можете скачивать файлы