Ссылка на приватное зеркало нашего сайта всего за 1$. Внимание количество ограничено!!!

2 сезон

iTunes

1 сезон

1

iTunes

iTunes

iTunes

1 сезон

RePack

30

ИГРА 18+

pack

ВАЖНО

!!Акция!!

Alien_RageХит недели

RePack

MK11
pack

Забери бонус

RePack

jed

!!Акция!!

Alien_Rage

RePack

fifa19

RePack

Assassins Creed: Odyssey

RePack

NEED FOR SPEED™ PAYBACK

4 сезон

9 сезон

Бесстыжие 9 сезон

Все сериалы

все сериалы на PB.wtf

RePack

FAR CRY 5
  

Лига джентльменов / The League of Gentlemen (Бэзил Дирден) [1960, комедия, криминал, триллер, BDRip 720p by msltel] AVO piratbit.org

Лига джентльменов через торрент piratbit.org

Размер: 4.82 GB | Добавлен: 8 мес. назад | Торрент скачан:4 раза
Скачать  

27-01-2020 05:36 Лига джентльменов Скачать торрент  

Название: Лига джентльменов
Оригинальное название: The League of Gentlemen
Год выпуска: 1960
Страна: Великобритания
Жанр: комедия, криминал, триллер
Продолжительность: 01:53:41
Перевод: авторский
Режиссер: Бэзил Дирден
В ролях: Джек Хоукинс, Найджел Патрик, Роджер Ливси, Ричард Аттенборо, Брайан Форбс, Кирон Мур, Теренс Александер, Норман Бёрд, Роберт Кут, Мелисса Стриблинг, Нанетт Ньюман, Лидия Шервуд, Дорис Хэа, Патрик Уаймарк, Джералд Харпер, Брайан Мюррэй

О фильме: Хоукинс, недовольный, что его выгнали из армии, где он верно служил много лет, решает пойти на ограбление банка. Эту идею он позаимствовал из американского триллера и набрал семь нищих офицеров, у некоторых из которых было тёмное прошлое. Все они - классные специалисты по своей части в армии. Банда уходит в подполье, пока каждый этап операции планируется до мельчайших подробностей. По военной части каждый офицер из банды был бы награжден медалью за такую организацию. Когда всё запускается в действие, они спотыкаются на крохотной, неучтённой детали...



Качество: BDRip 720p
Формат: MKV
Видео: MPEG-4 AVC, 5683 Кбит/с, 1256x720, 24 Кадр/с
Аудио 1: русский, AC3, 192 kbps, 2 ch, 48 kHz [авторский, Алексей Медведев]
Аудио 2: английский, AC3, 192 kbps, 2 ch, 48 kHz [оригинал]
Субтитры: английские
Главы/чаптеры
Общее
Уникальный идентификатор : 205866302574766711462274927319345877241 (0x9AE0685CDBAE777FAC59CF498B8150F9)
Полное имя : D:\Video\Лига джентльменов.1960.BDRip 720p by msltel.mkv
Формат : Matroska
Версия формата : Version 4
Размер файла : 4,82 Гбайт
Продолжительность : 1 ч. 53 м.
Общий поток : 6070 Кбит/сек
Название фильма : Rip by msltel
Дата кодирования : UTC 2020-01-27 02:37:50
Программа кодирования : mkvmerge v8.2.0 ('World of Adventure') 64bit
Библиотека кодирования : libebml v1.3.1 + libmatroska v1.4.2

Видео
Идентификатор : 1
Формат : AVC
Формат/Информация : Advanced Video Codec
Профиль формата : High@L4.1
Настройки формата : CABAC / 9 Ref Frames
Параметр CABAC формата : Да
Параметр RefFrames формата : 9 кадров
Идентификатор кодека : V_MPEG4/ISO/AVC
Продолжительность : 1 ч. 53 м.
Битрейт : 5683 Кбит/сек
Ширина : 1256 пикселей
Высота : 720 пикселей
Соотношение сторон : 16:9
Режим частоты кадров : Постоянный
Частота кадров : 24,000 кадра/сек
Цветовое пространство : YUV
Субдискретизация насыщенности : 4:2:0
Битовая глубина : 8 бит
Тип развёртки : Прогрессивная
Бит/(Пиксели*Кадры) : 0.262
Размер потока : 4,51 Гбайт (94%)
Библиотека кодирования : x264 core 157 r2969 d4099dd
Настройки программы : cabac=1 / ref=9 / deblock=1:-2:-2 / analyse=0x3:0x113 / me=umh / subme=11 / psy=1 / psy_rd=1.00:0.15 / mixed_ref=1 / me_range=32 / chroma_me=1 / trellis=2 / 8x8dct=1 / cqm=0 / deadzone=21,11 / fast_pskip=0 / chroma_qp_offset=-3 / threads=6 / lookahead_threads=1 / sliced_threads=0 / nr=0 / decimate=1 / interlaced=0 / bluray_compat=0 / constrained_intra=0 / bframes=8 / b_pyramid=2 / b_adapt=2 / b_bias=0 / direct=1 / weightb=1 / open_gop=0 / weightp=2 / keyint=230 / keyint_min=23 / scenecut=40 / intra_refresh=0 / rc_lookahead=40 / rc=crf / mbtree=0 / crf=19.0 / qcomp=0.60 / qpmin=0 / qpmax=69 / qpstep=4 / vbv_maxrate=50000 / vbv_bufsize=62500 / crf_max=0.0 / nal_hrd=none / filler=0 / ip_ratio=1.40 / pb_ratio=1.30 / aq=1:1.00
Язык : English
Default : Да
Forced : Нет

Аудио #1
Идентификатор : 2
Формат : AC-3
Формат/Информация : Audio Coding 3
Коммерческое название : Dolby Digital
Идентификатор кодека : A_AC3
Продолжительность : 1 ч. 53 м.
Вид битрейта : Постоянный
Битрейт : 192 Кбит/сек
Каналы : 2 канала
ChannelLayout : L R
Частота : 48,0 КГц
Частота кадров : 31,250 кадров/сек (1536 SPF)
Метод сжатия : С потерями
Размер потока : 156 Мбайт (3%)
Заголовок : Алексей Медведев
Язык : Russian
ServiceKind/String : Complete Main
Default : Да
Forced : Нет

Аудио #2
Идентификатор : 3
Формат : AC-3
Формат/Информация : Audio Coding 3
Коммерческое название : Dolby Digital
Идентификатор кодека : A_AC3
Продолжительность : 1 ч. 53 м.
Вид битрейта : Постоянный
Битрейт : 192 Кбит/сек
Каналы : 2 канала
ChannelLayout : L R
Частота : 48,0 КГц
Частота кадров : 31,250 кадров/сек (1536 SPF)
Метод сжатия : С потерями
Размер потока : 156 Мбайт (3%)
Заголовок : original
Язык : English
ServiceKind/String : Complete Main
Default : Нет
Forced : Нет

Текст
Идентификатор : 4
Формат : UTF-8
Идентификатор кодека : S_TEXT/UTF8
Идентификатор кодека/Информация : UTF-8 Plain Text
Продолжительность : 1 ч. 52 м.
Битрейт : 66 бит/сек
ElementCount : 1605
Размер потока : 54,6 Кбайт (0%)
Заголовок : английские
Язык : English
Default : Нет
Forced : Нет

Меню
00:00:00.000 : en:Chapter 01
00:09:05.125 : en:Chapter 02
00:19:17.250 : en:Chapter 03
00:32:21.291 : en:Chapter 04
00:44:42.666 : en:Chapter 05
00:52:08.750 : en:Chapter 06
01:02:03.250 : en:Chapter 07
01:14:22.208 : en:Chapter 08
01:23:00.083 : en:Chapter 09
01:33:07.875 : en:Chapter 10
01:37:10.208 : en:Chapter 11
01:48:52.583 : en:Chapter 12
piratbit.org



Скачать Лига джентльменов через торрент https://a.radikal.ru/a38/2001/56/a1f155d7ecee.jpg Скачать фильм Лига джентльменов через торрент бесплантно в хорошем качестве О фильме: Хоукинс, недовольный, что его выгнали из армии, где он верно служил много лет, решает пойти на ограбление банка. Эту идею он ... 10 10 1
Торрент: Зарегистрирован [2020-01-27 05:36] · скачан: 4 раз
Статус: √ проверено
Размер: 4.82 GB
Как cкачать? Как скачать Лига джентльменов через торрент | qTorrent

% Раздел Тема Автор DL S | L
Классика зарубежного кино [ 13.43 GB ] Лига джентльменов / The League of Gentlemen [1960 BDRip 1080p by msltel] AVO msltel Скачать
1 | 0
Классика зарубежного кино [ 2.56 GB ] Лига джентльменов / The League of Gentlemen [1960 BDRip-AVC by msltel] AVO msltel Скачать
1 | 0
Фильмы до 2000 г. [ 3.27 GB ] Лига выдающихся джентльменов / The League of Extraordinary Gentlemen [2003 BDRip-AVC] DUB MVO 2 x AVO msltel Скачать
1 | 0
Фильмы [HD 720p, 1080p] (Хороший звук DUB, MVO) [ 4.27 GB ] Лига выдающихся джентльменов / The League of Extraordinary Gentlemen [2003 BDRip 720p] DUB MVO 2 x AVO msltel Скачать
1 | 0
Фильмы [HD 720p, 1080p] (Хороший звук DUB, MVO) [ 16.8 GB ] Лига выдающихся джентльменов / The League of Extraordinary Gentlemen [2003 BDRip 1080p DUB MVO DVO AVO] кэп Скачать
1 | 0
Фильмы с авторской озвучкой [ 2.2 GB ] Лига выдающихся джентльменов / The League of Extraordinary Gentlemen [2003 BDRip] 2x[AVO] killermax2013 Скачать
1 | 0

28-11-2019 20:33  

Отключить всю рекламу на сайте

    Дорогой пользователь! Огромная просьба, поблагодарите релизера, оцените раздачу и оставьте свои комментарий, если Вы скачали Лига джентльменов через торрент бесплатно! Внесите свою лепту в развитие PiratBit!
    Комментировать посты могут только пользователи прошедшие не сложную регистрацию
    Показать сообщения:    

    Лига джентльменов через торрент
    Скачать бесплатно Лига джентльменов
    Лига джентльменов скачать торрент
    Лига джентльменов смотреть онлайн
    Cкачать фильм Лига джентльменов бесплатно
    Лига джентльменов скачать торрент в хорошем качестве
    Лига джентльменов смотреть онлайн бесплатно в хорошем качестве


    Вы не можете начинать темы
    Вы не можете отвечать на сообщения
    Вы не можете редактировать свои сообщения
    Вы не можете удалять свои сообщения
    Вы не можете голосовать в опросах
    Вы не можете прикреплять файлы к сообщениям
    Вы можете скачивать файлы