Лицензия

MVO

1

1 сезон

Лицензия

Лицензия

13

MVO

1 сезон

Deluxe Edition

pack

Рекомендуем

30

Repack

ВАЖНО

ВАЖНО

Ghostwire

RePack

jed

RePack

fifa19

RePack

RDR2

RePack

NEED FOR SPEED™ PAYBACK

RePack

Кинопоиск HD

 Острые козырьки 6 сезон

6 сезон

FAR CRY 6

RePack

Лицензия

MVO

1

1 сезон

1 сезон

Лицензия

  

Звезда Улугбека (Латиф Файзиев) [1964, СССР, драма, SATRip-HEVC от AVP Studio]

Звезда Улугбека через торрент piratbit.org

Качают: 2 [ 0 KB/s ]
Размер: 1.09 GB | Добавлен: 2 года 7 мес. назад | Торрент скачан:14 раз
Смотреть онлайн Звезда Улугбека | Скачать   

31-01-2020 08:40 Звезда Улугбека Скачать торрент  

Звезда Улугбека
Страна: СССР
Производство: Узбекфильм

Жанр: драма
Год выпуска: 1964
Продолжительность: 01:32:44

Перевод: Не требуется
Cубтитры: нет
Оригинальная аудиодорожка: русский

Режиссер: Латиф Файзиев


Шукур Бурханов, Алим Ходжаев, Н. Камбарова, Ульмас Алиходжаев, Хамза Умаров, Раззак Хамраев, Мукаррама Камалова, С. Икрамов, Наби Рахимов, Нигмат Касымов, Хашим Гадоев, Аббас Бакиров, Хикмат Латыпов, Сайфи Алимов, Рахим Пирмухамедов...
Об актёрах подробней


Историко-биографический фильм о жизни просветителя, ученого, основателя обсерватории — султана Мухаммеда Тарагая Улугбека, правителя Самарканда.

Исходник: DVB
Качество видео: SATRip-HEVC
Формат видео: MKV

Видео: 704->1056x480 (2,2:1), 25,000 кадров/сек, H265 ~ 1552 kbps avg, 0.184 bit/pixel
Аудио: 48 kHz, Dolby Digital AC3 2.0, 192 kbps

Раздача от:
Общее
Полное имя : Zvezda.Ulugbeka.1964.SATRip-HEVC_[New-team]_by_AVP_Studio.mkv
Формат : Matroska
Версия формата : Version 4
Размер файла : 1,09 Гбайт
Продолжительность : 1 ч. 32 м.
Общий поток : 1682 Кбит/сек
Дата кодирования : UTC 2020-01-31 08:09:25
Программа кодирования : mkvmerge v43.0.0 ('The Quartermaster') 64-bit
Библиотека кодирования : libebml v1.3.10 + libmatroska v1.5.2

Видео
Идентификатор : 1
Формат : HEVC
Формат/Информация : High Efficiency Video Coding
Профиль формата : Main@L3@Main
Идентификатор кодека : V_MPEGH/ISO/HEVC
Продолжительность : 1 ч. 32 м.
Битрейт : 1552 Кбит/сек
Ширина : 704 пикселя
Высота : 480 пикселей
Соотношение сторон : 2,2:1
Режим частоты кадров : Постоянный
Частота кадров : 25,000 кадров/сек
Цветовое пространство : YUV
Субдискретизация насыщенности : 4:2:0
Битовая глубина : 8 бит
Бит/(Пиксели*Кадры) : 0.184
Размер потока : 1,01 Гбайт (92%)
Язык : Russian
Default : Да
Forced : Нет

Аудио
Идентификатор : 2
Формат : AAC LC
Формат/Информация : Advanced Audio Codec Low Complexity
Идентификатор кодека : A_AAC-2
Продолжительность : 1 ч. 32 м.
Битрейт : 128 Кбит/сек
Каналы : 2 канала
ChannelLayout : L R
Частота : 48,0 КГц
Частота кадров : 46,875 кадров/сек (1024 SPF)
Метод сжатия : С потерями
Задержка видео : 9 мс.
Размер потока : 84,9 Мбайт (8%)
Язык : Russian
Default : Да
Forced : Нет



Скачать Звезда Улугбека через торрент http://a.radikal.ru/a32/2001/7c/3859ad68250a.png Скачать, смотреть онлайн Звезда Улугбека бесплантно в хорошем качестве Год выпуска: 1964Продолжительность: 01:32:44Перевод: Не требуетсяCубтитры: нетОригинальная аудиодорожка: русскийРежиссер: Латиф ... 5 10 1
Торрент: Зарегистрирован [2020-01-31 08:40] · скачан: 14 раз
Статус: √ проверено
Размер: 1.09 GB
Как cкачать? Как скачать Звезда Улугбека через торрент | UTorrent

% Раздел Тема Автор DL S | L
Кино СССР [ 1.09 GB ] Звезда Улугбека | | SATRip-AVC от AVP Studio AVP Studio Скачать
2 | 1

28-11-2019 20:33  

Отключить вcю реклaмy на сайте

31-01-2020 08:53 Звезда Улугбека Скачать торрент  




    Дорогой пользователь! Огромная просьба, поблагодарите релизера, оцените раздачу и оставьте свои комментарий, если Вы скачали Звезда Улугбека через торрент бесплатно!!
    Комментировать посты могут только пользователи прошедшие не сложную регистрацию
    Показать сообщения:    


    Звезда Улугбека через торрент
    Скачать бесплатно Звезда Улугбека
    Звезда Улугбека скачать торрент
    Звезда Улугбека смотреть онлайн
    Cкачать фильм Звезда Улугбека бесплатно
    Звезда Улугбека скачать торрент в хорошем качестве
    Звезда Улугбека смотреть онлайн бесплатно в хорошем качестве
    Вы не можете начинать темы
    Вы не можете отвечать на сообщения
    Вы не можете редактировать свои сообщения
    Вы не можете удалять свои сообщения
    Вы не можете голосовать в опросах
    Вы не можете прикреплять файлы к сообщениям
    Вы можете скачивать файлы