1 сезон

3 сезон

iTunes

1

iTunes

DUB Netflix

iTunes

13

1 сезон

RePack

30

Deluxe

pack

Легкие деньги

ВАЖНО

ИГРА 18+

pack

RePack

MK11

RePack

jed

RePack

fifa19

RePack

RDR2

RePack

NEED FOR SPEED™ PAYBACK

4 сезон

9 сезон

Бесстыжие 9 сезон

Все сериалы

все сериалы на PB.wtf

RePack

FAR CRY 5

Anonymous, добрый день, мы не успеваем до 1 числа собрать деньги на оплату серверов, помогите нам пожалуйста в это трудное время. В качестве благодарности мы отключим Вам всю рекламу на сайте (укажите свой ник в строку Ваше имя)!

×
  
Magnet ссылка

Война семей / Сезон: 1 / Серии: 1-20 из 20 (Илья Фарфель, Евгений Корчагин) [2020, Комедия, WEB-DLRip] piratbit.org

Война семей через торрент piratbit.org

Раздают: 1 [ 0 KB/s ] Качают: 1 [ 0 KB/s ]
Размер: 5.86 GB | Добавлен: 1 год 3 мес. назад | Торрент скачан:290 раз
Скачать  

02-02-2020 01:52 Война семей Скачать торрент  

Война семей
Год выпуска: 2020
Страна: Россия
Жанр: Комедия
Продолжительность: ~ 00:23:00 серия
Перевод: Не требуется
Субтитры: отсутствуют

Режиссер: Илья Фарфель, Евгений Корчагин



В ролях: Егор Бероев, Александр Робак, Ольга Медынич, Светлана Колпакова, Арина Постникова, Арам Вардеванян, Пелагея Невзорова, Александра Флоринская, Алиса Клагиш, Джемал Тетруашвили, Любовь Тищенко (II), Юлия Томашевская, Юрий Скулябин, Елизавета Мазалова

Описание: Миша и Дима – друзья с детства. Общий бизнес, соседние дома без забора, дружба семьями – идиллия, которою, как казалось, невозможно разрушить. Грядущая свадьба детей должна была укрепить многолетний союз. Однако во время семейного торжества неожиданно вскрываются тайны, которые в один миг превращают лучших друзей в заклятых врагов.

Качество: WEB-DLRip
Формат: AVI

Видео: 720x400 (1.80:1), 25 fps, XviD build 73 ~1650 kbps avg, 0.23 bit/pixel
Аудио: 48 kHz, AC3 Dolby Digital, 2/0 (L,R) ch, ~192 kbps
скриншот  скриншот  скриншот  скриншот  

Общее
Полное имя : D:\Voyna.semey.S01.WEB-DLRip.25Kuzmich\Voyna.semey.s01e01-02.WEB-DLRip.25Kuzmich.avi
Формат : AVI
Формат/Информация : Audio Video Interleave
Размер файла : 600 Мбайт
Продолжительность : 45 м. 17 с.
Общий поток : 1852 Кбит/сек
Программа кодирования : VirtualDubMod 1.5.10.3 | www.virtualdub-fr.org || (build 2550/release)
Библиотека кодирования : VirtualDubMod build 2550/release

Видео
Идентификатор : 0
Формат : MPEG-4 Visual
Профиль формата : Advanced Simple@L5
Параметр BVOP формата : 1
Параметр QPel формата : Нет
Параметр GMC формата : Без точки перехода
Параметр матрицы формата : Default (MPEG)
Идентификатор кодека : XVID
Идентификатор кодека/Подсказка : XviD
Продолжительность : 45 м. 17 с.
Битрейт : 1657 Кбит/сек
Ширина : 720 пикселей
Высота : 400 пикселей
Соотношение сторон : 16:9
Частота кадров : 25,000 кадров/сек
Цветовое пространство : YUV
Субдискретизация насыщенности : 4:2:0
Битовая глубина : 8 бит
Тип развёртки : Прогрессивная
Метод сжатия : С потерями
Бит/(Пиксели*Кадры) : 0.219
Размер потока : 511 Мбайт (85%)
Библиотека кодирования : XviD 73

Аудио
Идентификатор : 1
Формат : AC-3
Формат/Информация : Audio Coding 3
Расширение режима : CM (complete main)
Параметр Endianness формата : Big
Идентификатор кодека : 2000
Продолжительность : 45 м. 17 с.
Вид битрейта : Постоянный
Битрейт : 192 Кбит/сек
Каналы : 2 канала
Расположение каналов : Front: L R
Частота : 48,0 КГц
Частота кадров : 31,250 кадров/сек (1536 spf)
Метод сжатия : С потерями
Размер потока : 62,2 Мбайт (10%)
Выравнивание : Разделение по промежуткам

Когда раздача ведётся путём добавления новых серий, при каждом добавлении создётся новый торрент. Чтобы начать докачку новой серии, пользователям необходимо сделать следующее:
(1) остановить скачивание,
(2) удалить старый торрент у себя из клиента (старые серии удалять не надо),
(3) скачать новый торрент и запустить его у себя в клиенте вместо старого, при этом указать клиенту путь в старую папку, куда и должно происходить скачивание новых серий.
Ваш клиент при этом должен произвести хеширование (проверку) старой папки (если не производит сам - помогите ему сделать это), и будет докачивать только те серии, которых у вас ещё нет. Старые серии при этом не удаляются, а продолжают раздаваться!
Eсли вы уже удалили старые серии, то предотвратить повторную закачку старых серий можно, отжав галочку в соответсвующих местах при запуске нового торрента. По возможности, желательно не удалять старые серии как можно дольше, чтобы релизёр не столько продолжал раздавать старые серии, а смог сконцентрироваться на новых.
piratbit.org



Скачать Война семей через торрент https://img15.lostpic.net/2020/02/02/dad6c1a76856d13c09a1c565697dfe3e.jpg Скачать фильм Война семей через торрент бесплантно в хорошем качестве Описание: Миша и Дима – друзья с детства. Общий бизнес, соседние дома без забора, дружба семьями – идиллия, которою, как казалось, ... 10 10 13
Торрент: Зарегистрирован [2020-03-04 09:13] · скачан: 290 раз
Статус: √ проверено
Размер: 5.86 GB
Как cкачать? Как скачать Война семей через торрент | UTorrent

% Раздел Тема Автор DL S | L
Наши сериалы [ 21.83 GB ] Война семей / Сезон: 2 / Серии: 1-20 из 20 [2021 WEBRip 1080p] bober100 Скачать
2 | 1
Наши сериалы [ 6.84 GB ] Война семей / Сезон: 2 / Серии: 1-20 из 20 [2021 WEBRip] bober100 Скачать
2 | 0
Наши сериалы [ 5.91 GB ] Война семей / Сезон: 2 / Серии: 1-20 из 20 [2021 WEBRip-AVC] bober100 Скачать
5 | 0
Наши сериалы [ 10.44 GB ] Война семей / Сезон: 2 / Серии: 1-20 из 20 [2021 WEBRip 720p] bober100 Скачать
3 | 0
TNT serials [ 7.2 GB ] Война семей / Сезон: 1 / Серии: 1-20 из 20 [2020 WEB-DLRip-AVC] bober100 Скачать
1 | 0
TNT serials [ 9.96 GB ] Война семей / Сезон: 1 / Серии: 1-20 из 20 [2020 WEB-DL 720p] bober100 Скачать
1 | 0
TNT serials [ 15.4 GB ] Война семей / Сезон: 1 / Серии: 1-20 из 20 [2020 WEB-DL 1080p] bober100 Скачать
2 | 0

28-11-2019 20:33  

Отключить всю рекламу на сайте

    Дорогой пользователь! Огромная просьба, поблагодарите релизера, оцените раздачу и оставьте свои комментарий, если Вы скачали Война семей через торрент бесплатно! Внесите свою лепту в развитие PiratBit!
    Комментировать посты могут только пользователи прошедшие не сложную регистрацию
    Показать сообщения:    

    Война семей через торрент
    Скачать бесплатно Война семей
    Война семей скачать торрент
    Война семей смотреть онлайн
    Cкачать фильм Война семей бесплатно
    Война семей скачать торрент в хорошем качестве
    Война семей смотреть онлайн бесплатно в хорошем качестве


    Вы не можете начинать темы
    Вы не можете отвечать на сообщения
    Вы не можете редактировать свои сообщения
    Вы не можете удалять свои сообщения
    Вы не можете голосовать в опросах
    Вы не можете прикреплять файлы к сообщениям
    Вы можете скачивать файлы