1 сезон

3 сезон

iTunes

1

iTunes

DUB Netflix

iTunes

13

1 сезон

RePack

30

Deluxe

pack

Легкие деньги

ВАЖНО

ИГРА 18+

pack

RePack

MK11

RePack

jed

RePack

fifa19

RePack

RDR2

RePack

NEED FOR SPEED™ PAYBACK

4 сезон

9 сезон

Бесстыжие 9 сезон

Все сериалы

все сериалы на PB.wtf

RePack

FAR CRY 5

Anonymous, добрый день, мы не успеваем до 1 числа собрать деньги на оплату серверов, помогите нам пожалуйста в это трудное время. В качестве благодарности мы отключим Вам всю рекламу на сайте (укажите свой ник в строку Ваше имя)!

×
  
Magnet ссылка

Война семей / Сезон: 1 / Серии: 1-20 из 20 (Илья Фарфель, Евгений Корчагин) [2020, Комедия, WEB-DL 720p] piratbit.org

Война семей через торрент piratbit.org

Размер: 9.96 GB | Добавлен: 1 год 3 мес. назад | Торрент скачан:209 раз
Скачать  

02-02-2020 05:43 Война семей Скачать торрент  

Война семей
Год выпуска: 2020
Страна: Россия
Жанр: Комедия
Продолжительность: ~ 00:23:00 серия
Перевод: Не требуется
Субтитры: отсутствуют

Режиссер: Илья Фарфель, Евгений Корчагин



В ролях: Егор Бероев, Александр Робак, Ольга Медынич, Светлана Колпакова, Арина Постникова, Арам Вардеванян, Пелагея Невзорова, Александра Флоринская, Алиса Клагиш, Джемал Тетруашвили, Любовь Тищенко (II), Юлия Томашевская, Юрий Скулябин, Елизавета Мазалова

Описание: Миша и Дима – друзья с детства. Общий бизнес, соседние дома без забора, дружба семьями – идиллия, которою, как казалось, невозможно разрушить. Грядущая свадьба детей должна была укрепить многолетний союз. Однако во время семейного торжества неожиданно вскрываются тайны, которые в один миг превращают лучших друзей в заклятых врагов.

Качество: WEB-DL 720p
Формат: MKV

Видео: 1280x720, (16:9), 25 fps, AVC MPEG-4 (x264), Baseline@L4 ~ 3000 kbps , 0.127 bit/pixel
Аудио: 48 kHz, AC3 Dolby Digital, 2/0 (L,R) ch, ~192 kbps
скриншот  скриншот  скриншот  скриншот  

Общее
Уникальный идентификатор : 172223078035594512321228847777576042915 (0x8190F553D362F473BB845C624872C1A3)
Полное имя : D:\Voyna.semey.2019.WEB-DL.(720p).ExKinoRay\Voyna.semey.e01-02.2019.WEB-DL.(720p).ExKinoRay.mkv
Формат : Matroska
Версия формата : Version 2
Размер файла : 1,00 Гбайт
Продолжительность : 45 м. 17 с.
Режим общего битрейта : Переменный
Общий поток : 3171 Кбит/сек
Дата кодирования : UTC 2020-02-07 13:54:14
Программа кодирования : mkvmerge v5.8.0 ('No Sleep / Pillow') built on Sep 2 2012 15:37:04
Библиотека кодирования : libebml v1.2.3 + libmatroska v1.3.0

Видео
Идентификатор : 1
Формат : AVC
Формат/Информация : Advanced Video Codec
Профиль формата : High@L3.1
Параметр CABAC формата : Да
Параметр RefFrames формата : 1 кадр
Идентификатор кодека : V_MPEG4/ISO/AVC
Продолжительность : 45 м. 17 с.
Вид битрейта : Переменный
Битрейт : 2916 Кбит/сек
Максимальный битрейт : 3000 Кбит/сек
Ширина : 1280 пикселей
Высота : 720 пикселей
Соотношение сторон : 16:9
Режим частоты кадров : Постоянный
Частота кадров : 25,000 кадров/сек
Цветовое пространство : YUV
Субдискретизация насыщенности : 4:2:0
Битовая глубина : 8 бит
Тип развёртки : Прогрессивная
Бит/(Пиксели*Кадры) : 0.127
Размер потока : 945 Мбайт (92%)
Язык : Russian
Default : Да
Forced : Нет

Аудио
Идентификатор : 2
Формат : AC-3
Формат/Информация : Audio Coding 3
Расширение режима : CM (complete main)
Параметр Endianness формата : Big
Идентификатор кодека : A_AC3
Продолжительность : 45 м. 17 с.
Вид битрейта : Постоянный
Битрейт : 192 Кбит/сек
Каналы : 2 канала
Расположение каналов : Front: L R
Частота : 48,0 КГц
Частота кадров : 31,250 кадров/сек (1536 spf)
Метод сжатия : С потерями
Размер потока : 62,2 Мбайт (6%)
Язык : Russian
Default : Да
Forced : Нет

Когда раздача ведётся путём добавления новых серий, при каждом добавлении создётся новый торрент. Чтобы начать докачку новой серии, пользователям необходимо сделать следующее:
(1) остановить скачивание,
(2) удалить старый торрент у себя из клиента (старые серии удалять не надо),
(3) скачать новый торрент и запустить его у себя в клиенте вместо старого, при этом указать клиенту путь в старую папку, куда и должно происходить скачивание новых серий.
Ваш клиент при этом должен произвести хеширование (проверку) старой папки (если не производит сам - помогите ему сделать это), и будет докачивать только те серии, которых у вас ещё нет. Старые серии при этом не удаляются, а продолжают раздаваться!
Eсли вы уже удалили старые серии, то предотвратить повторную закачку старых серий можно, отжав галочку в соответсвующих местах при запуске нового торрента. По возможности, желательно не удалять старые серии как можно дольше, чтобы релизёр не столько продолжал раздавать старые серии, а смог сконцентрироваться на новых.
piratbit.org



Скачать Война семей через торрент https://img15.lostpic.net/2020/02/02/dad6c1a76856d13c09a1c565697dfe3e.jpg Скачать фильм Война семей через торрент бесплантно в хорошем качестве Описание: Миша и Дима – друзья с детства. Общий бизнес, соседние дома без забора, дружба семьями – идиллия, которою, как казалось, ... 9.6 10 25
Торрент: Зарегистрирован [2020-03-01 01:41] · скачан: 209 раз
Статус: √ проверено
Размер: 9.96 GB
Как cкачать? Как скачать Война семей через торрент | UTorrent

% Раздел Тема Автор DL S | L
Наши сериалы [ 21.83 GB ] Война семей / Сезон: 2 / Серии: 1-20 из 20 [2021 WEBRip 1080p] bober100 Скачать
2 | 1
Наши сериалы [ 6.84 GB ] Война семей / Сезон: 2 / Серии: 1-20 из 20 [2021 WEBRip] bober100 Скачать
2 | 0
Наши сериалы [ 5.91 GB ] Война семей / Сезон: 2 / Серии: 1-20 из 20 [2021 WEBRip-AVC] bober100 Скачать
5 | 0
Наши сериалы [ 10.44 GB ] Война семей / Сезон: 2 / Серии: 1-20 из 20 [2021 WEBRip 720p] bober100 Скачать
3 | 0
TNT serials [ 7.2 GB ] Война семей / Сезон: 1 / Серии: 1-20 из 20 [2020 WEB-DLRip-AVC] bober100 Скачать
1 | 0
TNT serials [ 15.4 GB ] Война семей / Сезон: 1 / Серии: 1-20 из 20 [2020 WEB-DL 1080p] bober100 Скачать
2 | 0
TNT serials [ 5.86 GB ] Война семей / Сезон: 1 / Серии: 1-20 из 20 [2020 WEB-DLRip] bober100 Скачать
2 | 1

28-11-2019 20:33  

Отключить всю рекламу на сайте

    Дорогой пользователь! Огромная просьба, поблагодарите релизера, оцените раздачу и оставьте свои комментарий, если Вы скачали Война семей через торрент бесплатно! Внесите свою лепту в развитие PiratBit!
    Комментировать посты могут только пользователи прошедшие не сложную регистрацию
    Показать сообщения:    

    Война семей через торрент
    Скачать бесплатно Война семей
    Война семей скачать торрент
    Война семей смотреть онлайн
    Cкачать фильм Война семей бесплатно
    Война семей скачать торрент в хорошем качестве
    Война семей смотреть онлайн бесплатно в хорошем качестве


    Вы не можете начинать темы
    Вы не можете отвечать на сообщения
    Вы не можете редактировать свои сообщения
    Вы не можете удалять свои сообщения
    Вы не можете голосовать в опросах
    Вы не можете прикреплять файлы к сообщениям
    Вы можете скачивать файлы