Ссылка на приватное зеркало нашего сайта всего за 1$. Внимание количество ограничено!!!

2 сезон

iTunes

1 сезон

1

iTunes

iTunes

iTunes

1 сезон

RePack

30

ИГРА 18+

pack

ВАЖНО

!!Акция!!

Alien_RageХит недели

RePack

MK11
pack

Забери бонус

RePack

jed

!!Акция!!

Alien_Rage

RePack

fifa19

RePack

Assassins Creed: Odyssey

RePack

NEED FOR SPEED™ PAYBACK

4 сезон

9 сезон

Бесстыжие 9 сезон

Все сериалы

все сериалы на PB.wtf

RePack

FAR CRY 5
  

Неприятности с ангелами / The Trouble with Angels (Ида Лупино) [1966, комедия, BDRip 720p by msltel] VO piratbit.org

Неприятности с ангелами через торрент piratbit.org

Размер: 4.62 GB | Добавлен: 8 мес. назад | Торрент скачан:0 раз
Скачать  

03-02-2020 05:28 Неприятности с ангелами Скачать торрент  

Название: Неприятности с ангелами
Оригинальное название: The Trouble with Angels
Год выпуска: 1966
Страна: США
Жанр: комедия
Продолжительность: 01:50:58
Перевод: любительский одноголосый
Режиссер: Ида Лупино
В ролях: Розалинд Расселл, Бинни Барнс, Камилла Спарв, Мэри Уикс, Мардж Редмонд, Долорес Саттон, Маргало Гиллмор, Портия Нельсон, Марджори Итон, Барбара Белл Райт

О фильме: : В школу-интернат имени Святого Франциска прибывают новые ученицы. В их числе две юные бунтарки, Рейчел Девери и Мэри Клэнси, которые становятся подругами. Недовольные строгими порядками в школе, они устраивают различные проделки к возмущению суровой матери-настоятельницы и огорчению чудаковатых монахинь...



Качество: BDRip 720p
Формат: MKV
Видео: MPEG-4 AVC, 5572 Kбит/с, 1280x690
Аудио 1: русский, AC3, 192 kbps, 2 ch, 48 kHz [закадровый одноголосый, Игорь Клушин]
Аудио 2: английский, AC3, 192 kbps, 2 ch, 48 kHz [оригинал]
Субтитры 1: русские
Субтитры 2: английские
Главы/чаптеры
Общее
Уникальный идентификатор : 211110292834117330394964996321946310057 (0x9ED25D0B4E3638E3A1C5934EC25315A9)
Полное имя : D:\Video\Неприятности с ангелами.1966.BDRip 720p by msltel.mkv
Формат : Matroska
Версия формата : Version 4
Размер файла : 4,62 Гбайт
Продолжительность : 1 ч. 50 м.
Общий поток : 5959 Кбит/сек
Название фильма : Rip by msltel
Дата кодирования : UTC 2020-02-03 02:54:55
Программа кодирования : mkvmerge v8.2.0 ('World of Adventure') 64bit
Библиотека кодирования : libebml v1.3.1 + libmatroska v1.4.2

Видео
Идентификатор : 1
Формат : AVC
Формат/Информация : Advanced Video Codec
Профиль формата : High@L4.1
Настройки формата : CABAC / 9 Ref Frames
Параметр CABAC формата : Да
Параметр RefFrames формата : 9 кадров
Идентификатор кодека : V_MPEG4/ISO/AVC
Продолжительность : 1 ч. 50 м.
Битрейт : 5572 Кбит/сек
Ширина : 1280 пикселей
Высота : 690 пикселей
Соотношение сторон : 1,85:1
Режим частоты кадров : Постоянный
Частота кадров : 23,976 (24000/1001) кадра/сек
Цветовое пространство : YUV
Субдискретизация насыщенности : 4:2:0
Битовая глубина : 8 бит
Тип развёртки : Прогрессивная
Бит/(Пиксели*Кадры) : 0.263
Размер потока : 4,32 Гбайт (94%)
Библиотека кодирования : x264 core 157 r2969 d4099dd
Настройки программы : cabac=1 / ref=9 / deblock=1:-2:-2 / analyse=0x3:0x113 / me=umh / subme=11 / psy=1 / psy_rd=1.00:0.15 / mixed_ref=1 / me_range=32 / chroma_me=1 / trellis=2 / 8x8dct=1 / cqm=0 / deadzone=21,11 / fast_pskip=0 / chroma_qp_offset=-3 / threads=6 / lookahead_threads=1 / sliced_threads=0 / nr=0 / decimate=1 / interlaced=0 / bluray_compat=0 / constrained_intra=0 / bframes=10 / b_pyramid=2 / b_adapt=2 / b_bias=0 / direct=1 / weightb=1 / open_gop=0 / weightp=2 / keyint=230 / keyint_min=23 / scenecut=40 / intra_refresh=0 / rc_lookahead=40 / rc=crf / mbtree=0 / crf=19.9 / qcomp=0.60 / qpmin=0 / qpmax=69 / qpstep=4 / vbv_maxrate=50000 / vbv_bufsize=62500 / crf_max=0.0 / nal_hrd=none / filler=0 / ip_ratio=1.40 / pb_ratio=1.30 / aq=1:1.00
Язык : English
Default : Да
Forced : Нет

Аудио #1
Идентификатор : 2
Формат : AC-3
Формат/Информация : Audio Coding 3
Коммерческое название : Dolby Digital
Идентификатор кодека : A_AC3
Продолжительность : 1 ч. 50 м.
Вид битрейта : Постоянный
Битрейт : 192 Кбит/сек
Каналы : 2 канала
ChannelLayout : L R
Частота : 48,0 КГц
Частота кадров : 31,250 кадров/сек (1536 SPF)
Метод сжатия : С потерями
Размер потока : 152 Мбайт (3%)
Заголовок : Игорь Клушин
Язык : Russian
ServiceKind/String : Complete Main
Default : Да
Forced : Нет

Аудио #2
Идентификатор : 3
Формат : AC-3
Формат/Информация : Audio Coding 3
Коммерческое название : Dolby Digital
Идентификатор кодека : A_AC3
Продолжительность : 1 ч. 50 м.
Вид битрейта : Постоянный
Битрейт : 192 Кбит/сек
Каналы : 2 канала
ChannelLayout : L R
Частота : 48,0 КГц
Частота кадров : 31,250 кадров/сек (1536 SPF)
Метод сжатия : С потерями
Размер потока : 152 Мбайт (3%)
Заголовок : original
Язык : English
ServiceKind/String : Complete Main
Default : Нет
Forced : Нет

Текст #1
Идентификатор : 4
Формат : UTF-8
Идентификатор кодека : S_TEXT/UTF8
Идентификатор кодека/Информация : UTF-8 Plain Text
Продолжительность : 33 м. 13 с.
Битрейт : 6 бит/сек
ElementCount : 30
Размер потока : 1,57 Кбайт (0%)
Заголовок : рууские тексты песен
Язык : Russian
Default : Да
Forced : Да

Текст #2
Идентификатор : 5
Формат : UTF-8
Идентификатор кодека : S_TEXT/UTF8
Идентификатор кодека/Информация : UTF-8 Plain Text
Продолжительность : 1 ч. 49 м.
Битрейт : 99 бит/сек
ElementCount : 1348
Размер потока : 79,6 Кбайт (0%)
Заголовок : русские
Язык : Russian
Default : Нет
Forced : Нет

Текст #3
Идентификатор : 6
Формат : UTF-8
Идентификатор кодека : S_TEXT/UTF8
Идентификатор кодека/Информация : UTF-8 Plain Text
Продолжительность : 1 ч. 47 м.
Битрейт : 57 бит/сек
ElementCount : 1255
Размер потока : 44,9 Кбайт (0%)
Заголовок : английские
Язык : English
Default : Нет
Forced : Нет

Меню
00:10:00.600 : :Глава 01
00:20:01.200 : :Глава 02
00:30:01.800 : :Глава 03
00:40:03.400 : :Глава 04
00:50:03.000 : :Глава 05
01:00:03.600 : :Глава 06
01:10:04.200 : :Глава 07
01:20:04.799 : :Глава 08
01:30:05.400 : :Глава 09
01:40:06.000 : :Глава 10
piratbit.org



Скачать Неприятности с ангелами через торрент https://b.radikal.ru/b09/2002/47/96f76bb9e363.jpg Скачать фильм Неприятности с ангелами через торрент бесплантно в хорошем качестве О фильме: : В школу-интернат имени Святого Франциска прибывают новые ученицы. В их числе две юные бунтарки, Рейчел Девери и Мэри Клэнси, ... 5 10 1
Торрент: Зарегистрирован [2020-02-03 05:28] · скачан: 0 раз
Статус: √ проверено
Размер: 4.62 GB
Как cкачать? Как скачать Неприятности с ангелами через торрент | qTorrent

% Раздел Тема Автор DL S | L
Классика зарубежного кино [ 14.05 GB ] Неприятности с ангелами / The Trouble with Angels [1966 BDRip 1080p by msltel] VO msltel Скачать
1 | 0
Классика зарубежного кино [ 2.5 GB ] Неприятности с ангелами / The Trouble with Angels [1966 BDRip-AVC by msltel] VO msltel Скачать
1 | 0

28-11-2019 20:33  

Отключить всю рекламу на сайте

    Дорогой пользователь! Огромная просьба, поблагодарите релизера, оцените раздачу и оставьте свои комментарий, если Вы скачали Неприятности с ангелами через торрент бесплатно! Внесите свою лепту в развитие PiratBit!
    Комментировать посты могут только пользователи прошедшие не сложную регистрацию
    Показать сообщения:    

    Неприятности с ангелами через торрент
    Скачать бесплатно Неприятности с ангелами
    Неприятности с ангелами скачать торрент
    Неприятности с ангелами смотреть онлайн
    Cкачать фильм Неприятности с ангелами бесплатно
    Неприятности с ангелами скачать торрент в хорошем качестве
    Неприятности с ангелами смотреть онлайн бесплатно в хорошем качестве


    Вы не можете начинать темы
    Вы не можете отвечать на сообщения
    Вы не можете редактировать свои сообщения
    Вы не можете удалять свои сообщения
    Вы не можете голосовать в опросах
    Вы не можете прикреплять файлы к сообщениям
    Вы можете скачивать файлы