Лицензия

MVO

1

1 сезон

Лицензия

Лицензия

13

MVO

1 сезон

Deluxe Edition

pack

Рекомендуем

30

Repack

ВАЖНО

ВАЖНО

Ghostwire

RePack

jed

RePack

fifa19

RePack

RDR2

RePack

NEED FOR SPEED™ PAYBACK

RePack

Кинопоиск HD

 Острые козырьки 6 сезон

6 сезон

FAR CRY 6

RePack

Лицензия

MVO

1

1 сезон

1 сезон

Лицензия

  

Метель (Владимир Басов) [1964, СССР, драма, SATRip-AVC от AVP Studio]

Метель через торрент piratbit.org

Качают: 1 [ 0 KB/s ]
Размер: 744 MB | Добавлен: 2 года 7 мес. назад | Торрент скачан:23 раза
Смотреть онлайн Метель | Скачать   

05-02-2020 09:06 Метель Скачать торрент  

Метель
Страна: СССР
Производство: Мосфильм

Жанр: драма
Год выпуска: 1964
Продолжительность: 01:15:09

Перевод: Не требуется
Cубтитры: нет
Оригинальная аудиодорожка: русский

Режиссер: Владимир Басов


Валентина Титова, Георгий Мартынюк, Олег Видов, Мария Пастухова, Сергей Папов, Владимир Маренков, Нина Акимова, Анатолий Игнатьев, Николай Прокопович, Николай Бурляев, Сергей Плотников...
Об актёрах подробней


Романтическая история о русской женщине, русских гусарах, безумной любви и ужасной русской метели, непредсказуемо смешавшей несколько человеческих судеб.

Исходник: DVB
Качество видео: SATRip-AVC
Формат видео: MKV

Видео: 696->776x330 (2,35:1), 25,000 кадров/сек, H264 ~ 1191 kbps avg, 0.207 bit/pixel
Аудио: 48 kHz, Dolby Digital AC3 2.0, 192 kbps

Раздача от:
Общее
Полное имя : Metel.1964.SATRip-AVC_[New-team]_by_AVP_Studio.mkv
Формат : Matroska
Версия формата : Version 2
Размер файла : 744 Мбайт
Продолжительность : 1 ч. 15 м.
Общий поток : 1385 Кбит/сек
Дата кодирования : UTC 2020-01-31 17:44:06
Программа кодирования : mkvmerge v6.9.1 ('Blue Panther') 32bit built on Apr 18 2014 18:15:44
Библиотека кодирования : libebml v1.3.0 + libmatroska v1.4.1

Видео
Идентификатор : 1
Формат : AVC
Формат/Информация : Advanced Video Codec
Профиль формата : High@L4.1
Настройки формата : CABAC / 10 Ref Frames
Параметр CABAC формата : Да
Параметр RefFrames формата : 10 кадров
Идентификатор кодека : V_MPEG4/ISO/AVC
Продолжительность : 1 ч. 15 м.
Битрейт : 1191 Кбит/сек
Ширина : 696 пикселей
Высота : 330 пикселей
Соотношение сторон : 2,35:1
Соотношение сторон в оригинале : 2,35:1
Режим частоты кадров : Постоянный
Частота кадров : 25,000 кадров/сек
Цветовое пространство : YUV
Субдискретизация насыщенности : 4:2:0
Битовая глубина : 8 бит
Тип развёртки : Прогрессивная
Бит/(Пиксели*Кадры) : 0.207
Размер потока : 626 Мбайт (84%)
Библиотека кодирования : x264 core 159 r2991 1771b55
Настройки программы : cabac=1 / ref=10 / deblock=1:-2:-1 / analyse=0x3:0x113 / me=umh / subme=10 / psy=1 / psy_rd=1.00:0.00 / mixed_ref=1 / me_range=32 / chroma_me=1 / trellis=2 / 8x8dct=1 / cqm=0 / deadzone=21,11 / fast_pskip=1 / chroma_qp_offset=-2 / threads=6 / lookahead_threads=1 / sliced_threads=0 / nr=0 / decimate=0 / interlaced=0 / bluray_compat=0 / constrained_intra=0 / bframes=8 / b_pyramid=2 / b_adapt=2 / b_bias=0 / direct=3 / weightb=1 / open_gop=0 / weightp=2 / keyint=250 / keyint_min=25 / scenecut=40 / intra_refresh=0 / rc=2pass / mbtree=0 / bitrate=1191 / ratetol=1.0 / qcomp=0.60 / qpmin=0 / qpmax=69 / qpstep=4 / cplxblur=20.0 / qblur=0.5 / ip_ratio=1.40 / pb_ratio=1.30 / aq=1:1.00
Default : Да
Forced : Нет

Аудио
Идентификатор : 2
Формат : AC-3
Формат/Информация : Audio Coding 3
Коммерческое название : Dolby Digital
Идентификатор кодека : A_AC3
Продолжительность : 1 ч. 15 м.
Вид битрейта : Постоянный
Битрейт : 192 Кбит/сек
Каналы : 2 канала
ChannelLayout : L R
Частота : 48,0 КГц
Частота кадров : 31,250 кадров/сек (1536 SPF)
Битовая глубина : 16 бит
Метод сжатия : С потерями
Размер потока : 103 Мбайт (14%)
Default : Да
Forced : Нет



Скачать Метель через торрент http://a.radikal.ru/a15/2002/f7/68f9263bbdd3.png Скачать, смотреть онлайн Метель бесплантно в хорошем качестве Год выпуска: 1964Продолжительность: 01:15:09Перевод: Не требуетсяCубтитры: нетОригинальная аудиодорожка: русскийРежиссер: Владимир ... 10 10 1
Торрент: Зарегистрирован [2020-02-05 09:06] · скачан: 23 раз
Статус: √ проверено
Размер: 744 MB
Как cкачать? Как скачать Метель через торрент | UTorrent

% Раздел Тема Автор DL S | L
Кино СССР [ 745 MB ] Метель | | SATRip-HEVC от AVP Studio AVP Studio Скачать
4 | 0
Кино СССР [ 1.17 GB ] Метель | | DVDRip-AVC Notturno Скачать
1 | 0

28-11-2019 20:33  

Отключить вcю реклaмy на сайте

    Дорогой пользователь! Огромная просьба, поблагодарите релизера, оцените раздачу и оставьте свои комментарий, если Вы скачали Метель через торрент бесплатно!!
    Комментировать посты могут только пользователи прошедшие не сложную регистрацию
    Показать сообщения:    


    Метель через торрент
    Скачать бесплатно Метель
    Метель скачать торрент
    Метель смотреть онлайн
    Cкачать фильм Метель бесплатно
    Метель скачать торрент в хорошем качестве
    Метель смотреть онлайн бесплатно в хорошем качестве
    Вы не можете начинать темы
    Вы не можете отвечать на сообщения
    Вы не можете редактировать свои сообщения
    Вы не можете удалять свои сообщения
    Вы не можете голосовать в опросах
    Вы не можете прикреплять файлы к сообщениям
    Вы можете скачивать файлы