Доктор Стрэндж

Лицензия

Добыча

MVO

Дом дракона

1 сезон

Тор

Лицензия

Мэверик

Лицензия

Там, где раки поют

MVO

Властелин колец

1 сезон

Ultimate

pack

Рекомендуем

30

Repack

ВАЖНО

ВАЖНО

Ghostwire

RePack

jed

RePack

nioh2

RePack

RDR2

RePack

NEED FOR SPEED™ PAYBACK

RePack

скачать торрент

Кинопоиск HD

Острые козырьки 6 сезон

6 сезон

FAR CRY 6

RePack

скачать торрент

Лицензия

скачать торрент

MVO

1

1 сезон

скачать торрент

1 сезон

скачать торрент

Лицензия

  

Метель (Владимир Басов) [1964, СССР, драма, SATRip-HEVC от AVP Studio]

Метель через торрент piratbit.org

Раздают: 2 [ 0 KB/s ]
Размер: 745 MB | Добавлен: 2 года 7 мес. назад | Торрент скачан:52 раза
Смотреть онлайн Метель | Скачать   

05-02-2020 09:07 Метель Скачать торрент  

Метель
Страна: СССР
Производство: Мосфильм

Жанр: драма
Год выпуска: 1964
Продолжительность: 01:15:09

Перевод: Не требуется
Cубтитры: нет
Оригинальная аудиодорожка: русский

Режиссер: Владимир Басов


Валентина Титова, Георгий Мартынюк, Олег Видов, Мария Пастухова, Сергей Папов, Владимир Маренков, Нина Акимова, Анатолий Игнатьев, Николай Прокопович, Николай Бурляев, Сергей Плотников...
Об актёрах подробней


Романтическая история о русской женщине, русских гусарах, безумной любви и ужасной русской метели, непредсказуемо смешавшей несколько человеческих судеб.

Исходник: DVB
Качество видео: SATRip-HEVC
Формат видео: MKV

Видео: 696->776x330 (2,35:1), 25,000 кадров/сек, H265 ~ 1256 kbps avg, 0.215 bit/pixel
Аудио: 48 kHz, AAC LC 2.0, 128 kbps

Раздача от:
Общее
Полное имя : Metel.1964.SATRip-HEVC_[New-team]_by_AVP_Studio.mkv
Формат : Matroska
Версия формата : Version 4
Размер файла : 745 Мбайт
Продолжительность : 1 ч. 15 м.
Общий поток : 1386 Кбит/сек
Дата кодирования : UTC 2020-02-02 08:30:56
Программа кодирования : mkvmerge v43.0.0 ('The Quartermaster') 64-bit
Библиотека кодирования : libebml v1.3.10 + libmatroska v1.5.2

Видео
Идентификатор : 1
Формат : HEVC
Формат/Информация : High Efficiency Video Coding
Профиль формата : Main@L3@Main
Идентификатор кодека : V_MPEGH/ISO/HEVC
Продолжительность : 1 ч. 15 м.
Битрейт : 1256 Кбит/сек
Ширина : 696 пикселей
Высота : 330 пикселей
Высота оригинала : 330 пикселей
Соотношение сторон : 2,35:1
Соотношение сторон в оригинале : 2,35:1
Режим частоты кадров : Постоянный
Частота кадров : 25,000 кадров/сек
Цветовое пространство : YUV
Субдискретизация насыщенности : 4:2:0
Битовая глубина : 8 бит
Бит/(Пиксели*Кадры) : 0.215
Размер потока : 675 Мбайт (91%)
Язык : Russian
Default : Да
Forced : Нет

Аудио
Идентификатор : 2
Формат : AAC LC
Формат/Информация : Advanced Audio Codec Low Complexity
Идентификатор кодека : A_AAC-2
Продолжительность : 1 ч. 15 м.
Битрейт : 128 Кбит/сек
Каналы : 2 канала
ChannelLayout : L R
Частота : 48,0 КГц
Частота кадров : 46,875 кадров/сек (1024 SPF)
Метод сжатия : С потерями
Задержка видео : 9 мс.
Размер потока : 68,8 Мбайт (9%)
Язык : Russian
Default : Да
Forced : Нет



Скачать Метель через торрент http://a.radikal.ru/a15/2002/f7/68f9263bbdd3.png Скачать, смотреть онлайн Метель бесплантно в хорошем качестве Год выпуска: 1964Продолжительность: 01:15:09Перевод: Не требуетсяCубтитры: нетОригинальная аудиодорожка: русскийРежиссер: Владимир ... 9 10 3
Торрент: Зарегистрирован [2020-02-05 09:07] · скачан: 52 раз
Статус: √ проверено
Размер: 745 MB
Как cкачать? Как скачать Метель через торрент | UTorrent

% Раздел Тема Автор DL S | L
Кино СССР [ 744 MB ] Метель | | SATRip-AVC от AVP Studio AVP Studio Скачать
1 | 0
Кино СССР [ 1.17 GB ] Метель | | DVDRip-AVC Notturno Скачать
1 | 0

28-11-2019 20:33  

Отключить вcю реклaмy на сайте

    Дорогой пользователь! Огромная просьба, поблагодарите релизера, оцените раздачу и оставьте свои комментарий, если Вы скачали Метель через торрент бесплатно!!
    Комментировать посты могут только пользователи прошедшие не сложную регистрацию
    Показать сообщения:    


    Метель через торрент
    Скачать бесплатно Метель
    Метель скачать торрент
    Метель смотреть онлайн
    Cкачать фильм Метель бесплатно
    Метель скачать торрент в хорошем качестве
    Метель смотреть онлайн бесплатно в хорошем качестве
    Вы не можете начинать темы
    Вы не можете отвечать на сообщения
    Вы не можете редактировать свои сообщения
    Вы не можете удалять свои сообщения
    Вы не можете голосовать в опросах
    Вы не можете прикреплять файлы к сообщениям
    Вы можете скачивать файлы