Доктор Стрэндж

Лицензия

Добыча

Дубляж

Уэнсдэй

1 сезон

Тор

Дубляж

В эфире

Дубляж

Там, где раки поют

MVO

Властелин колец

1 сезон

Deluxe

pack

Рекомендуем

30

Пиратка

ВАЖНО

ВАЖНО

Ghostwire

Пиратка

jed

RePack

nioh2

RePack

RDR2

RePack

NEED FOR SPEED™ PAYBACK

RePack

скачать торрент

Кинопоиск HD

Острые козырьки 6 сезон

6 сезон

FAR CRY 6

RePack

скачать торрент

Лицензия

скачать торрент

MVO

1

1 сезон

скачать торрент

1 сезон

скачать торрент

Лицензия

  

Атлантика / Atlantique (Мати Диоп) [2019 г., драма, WEB-DLRip, Профессиональный многоголосый закадровый "iTunes"]

Атлантика через торрент piratbit.org

Размер: 705 MB | Добавлен: 2 года 10 мес. назад | Торрент скачан:30 раз
Смотреть онлайн | Скачать   

05-02-2020 18:31 Атлантика Скачать торрент  

Атлантика / Atlantique
Год выпуска: 2019
Страна: Франция, Сенегал, Бельгия / Ad Vitam Production, Arte France Cinéma, Canal Plus
Жанр: драма
Продолжительность: 01:45:42
Перевод: Профессиональный многоголосый закадровый (iTunes)

Режиссер: Мати Диоп

rating

В ролях: Мамэ Бинета Сане, Амаду Мбов, Траоре, Николь Сугу, Амината Кэйн, Coumba Dieng, Ибрахима Мбайе, Дианку Сембене, Абду Балде, Бабакар Силла

Описание: В пригороде Дакара, который расположен вдоль побережья Атлантического океана, собираются открыть высотную башню. Строителям не платили месяцами, а потому однажды ночью они решают покинуть страну в поисках более светлого будущего. Среди них Сулейман, в которого влюблена девушка по имени Ада. Она, по настоянию родственников, должна вскоре выйти замуж за другого мужчину.

Качество: WEB-DLRip
Формат: AVI
Видео кодек: DivX
Аудио кодек: MP3
Видео: 640x384 (1.67:1), 24.000 fps, DivX Codec 4.x ~794 kbps avg, 0.13 bit/pixel
Аудио: 48 kHz, MPEG Layer 3, 2 ch, ~128.00 kbps avg
скриншот   скриншот   скриншот   скриншот  

Общее
Полное имя : F:\ФИЛЬМЫ\Атлантика.2019.WEB-DLRip.avi
Формат : AVI
Формат/Информация : Audio Video Interleave
Размер файла : 705 Мбайт
Продолжительность : 1 ч. 45 м.
Общий поток : 932 Кбит/сек
Программа кодирования : VirtualDubMod 1.5.10.3 | www.virtualdub-fr.org || (build 2550/release)
Библиотека кодирования : VirtualDubMod build 2550/release

Видео
Идентификатор : 0
Формат : MPEG-4 Visual
Профиль формата : Advanced Simple@L5
Настройки формата : BVOP3 / GMC3 / QPel
Параметр BVOP формата : 3
Параметр QPel формата : Да
Параметр GMC формата : 3 точки перехода
Параметр матрицы формата : Default (MPEG)
Идентификатор кодека : DIVX
Идентификатор кодека/Информация : Project Mayo
Идентификатор кодека/Подсказка : DivX 4
Продолжительность : 1 ч. 45 м.
Битрейт : 795 Кбит/сек
Ширина : 640 пикселей
Высота : 384 пикселя
Соотношение сторон : 5:3
Частота кадров : 24,000 кадра/сек
Цветовое пространство : YUV
Субдискретизация насыщенности : 4:2:0
Битовая глубина : 8 бит
Тип развёртки : Прогрессивная
Метод сжатия : С потерями
Бит/(Пиксели*Кадры) : 0.135
Размер потока : 601 Мбайт (85%)
Библиотека кодирования : XviD 1.2.1 (UTC 2008-12-04)

Аудио
Идентификатор : 1
Формат : MPEG Audio
Версия формата : Version 1
Профиль формата : Layer 3
Настройки формата : Joint stereo / MS Stereo
Идентификатор кодека : 55
Идентификатор кодека/Подсказка : MP3
Продолжительность : 1 ч. 45 м.
Вид битрейта : Постоянный
Битрейт : 128 Кбит/сек
Каналы : 2 канала
Частота : 48,0 КГц
Частота кадров : 41,667 кадра/сек (1152 SPF)
Метод сжатия : С потерями
Размер потока : 96,8 Мбайт (14%)
Выравнивание : Соединение по промежуткам
Продолжительность промежутка : 42 мс. (1,00 видеокадр)
Время предзагрузки промежутка : 504 мс.
Библиотека кодирования : LAME3.99r
Настройки программы : -m j -V 4 -q 2 -lowpass 17 -b 128




Скачать Атлантика через торрент https://pic1.kartinco.top/images/12/46rym.jpg Скачать, смотреть онлайн Атлантика бесплантно в хорошем качестве Описание: В пригороде Дакара, который расположен вдоль побережья Атлантического океана, собираются открыть высотную башню. Строителям не ... 10 10 3
Торрент: Зарегистрирован [2020-02-05 18:31] · скачан: 30 раз
Статус: √ проверено
Размер: 705 MB
Как cкачать? Как скачать Атлантика через торрент | UTorrent

% Раздел Тема Автор DL S | L
Фильмы 2019-2020 [DVDrip, WEB-DLRip, HDrip] (DUB, MVO) [ 1.41 GB ] Атлантика / Atlantique | Лицензия | BDRip Twi7ter Скачать
1 | 0
Фильмы [HD 720p, 1080p] (Хороший звук DUB, MVO) [ 13.15 GB ] Атлантика / Atlantique | iTunes | 1080p bober100 Скачать
1 | 0
Фильмы (Blu-ray, BD-Remux, HDDVD) [ 27.96 GB ] Атлантика / Atlantique | iTunes | BD Remux 1080p bober100 Скачать
1 | 0
Фильмы (WEB-DL 720p, 1080p) [ 3.11 GB ] Атлантика / Atlantique | iTunes | 1080p bober100 Скачать
1 | 0
Фильмы 2019-2020 [DVDrip, WEB-DLRip, HDrip] (DUB, MVO) [ 1.46 GB ] Атлантика / Atlantique | iTunes | BDRip bober100 Скачать
1 | 0

28-11-2019 20:33  


Отключить вcю реклaмy на сайте, в т.ч. и в плеере онлайн просмотра!

    Дорогой пользователь! Огромная просьба, поблагодарите релизера, оцените раздачу и оставьте свои комментарий, если Вы скачали Атлантика через торрент бесплатно!!
    Комментировать посты могут только пользователи прошедшие не сложную регистрацию
    Показать сообщения:    


    Атлантика через торрент
    Скачать бесплатно Атлантика
    Атлантика скачать торрент
    Атлантика смотреть онлайн
    Cкачать фильм Атлантика бесплатно
    Атлантика скачать торрент в хорошем качестве
    Атлантика смотреть онлайн бесплатно в хорошем качестве
    Вы не можете начинать темы
    Вы не можете отвечать на сообщения
    Вы не можете редактировать свои сообщения
    Вы не можете удалять свои сообщения
    Вы не можете голосовать в опросах
    Вы не можете прикреплять файлы к сообщениям
    Вы можете скачивать файлы
    Атлантика / Atlantique [2019 г., драма, WEB-DLRip, Профессиональный многоголосый закадровый "iTunes"] смотреть онлайн, скачать торрент picoco.icu