Доктор Стрэндж

Лицензия

Добыча

Дубляж

Уэнсдэй

1 сезон

Тор

Дубляж

В эфире

Дубляж

Там, где раки поют

MVO

Властелин колец

1 сезон

Deluxe

pack

Рекомендуем

30

Пиратка

ВАЖНО

ВАЖНО

Ghostwire

Пиратка

jed

RePack

nioh2

RePack

RDR2

RePack

NEED FOR SPEED™ PAYBACK

RePack

скачать торрент

Кинопоиск HD

Острые козырьки 6 сезон

6 сезон

FAR CRY 6

RePack

скачать торрент

Лицензия

скачать торрент

MVO

1

1 сезон

скачать торрент

1 сезон

скачать торрент

Лицензия

  

21 мост / 21 Bridges (Брайан Кирк) [2019 г., Боевик, триллер, драма, криминал, HDRip, Дубляж iTunes]

21 мост через торрент piratbit.org

Размер: 2.18 GB | Добавлен: 2 года 10 мес. назад | Торрент скачан:547 раз
Смотреть онлайн | Скачать   

07-02-2020 05:09 21 мост Скачать торрент  

21 мост / 21 Bridges
Год выпуска: 2019
Страна: США
Жанр: Боевик, триллер, драма, криминал
Продолжительность: 01:39:56
Перевод: Дублированное [iTunes]
Субтитры: нет

Режиссер: Брайан Кирк

rating

В ролях: Чэдвик Боузмэн, Сиенна Миллер, Тейлор Китч, Дж.К. Симмонс, Стэфан Джеймс, Кит Дэвид, Александр Сиддиг, Луис Канселми, Виктория Картахена, Гари Карр

Описание: Он охотится на преступников, которые совершили на Манхэттене дерзкое ограбление, оставив после себя 8 мертвых полицейских. А продажные копы тем временем охотятся на него, пытаясь подставить. Но преступникам не скрыться, так как первый раз в истории Нью-Йорка полиция перекрыла все выходы с острова, в том числе 21 мост.

Качество: HDRip
Формат: AVI
Видео кодек: XviD
Аудио кодек: AC3
Видео: MPEG-4, 720 x 304 (2.388) at 23.976 fps, 2272 Кбит/сек
Аудио#1: (RUS) AC-3, 384 Кбит/сек, 6 каналов, 48,0 КГц.
Аудио#2: (ENG) AC-3, 448 Кбит/сек, 6 каналов, 48,0 КГц






Общее
Полное имя : C:\Users\samsung\Desktop\Фильмы для раздач\21.Bridges.2019.D.HDRip.2100MB.avi
Формат : AVI
Формат/Информация : Audio Video Interleave
Профиль формата : OpenDML
Размер файла : 2,18 Гбайт
Продолжительность : 1 ч. 39 м.
Общий поток : 3120 Кбит/сек
Программа кодирования : Lavf58.20.100

Видео
Идентификатор : 0
Формат : MPEG-4 Visual
Профиль формата : Advanced Simple@L5
Настройки формата : BVOP1
Параметр BVOP формата : 1
Параметр QPel формата : Нет
Параметр GMC формата : Без точки перехода
Параметр матрицы формата : Default (H.263)
Идентификатор кодека : XVID
Идентификатор кодека/Подсказка : XviD
Продолжительность : 1 ч. 39 м.
Битрейт : 2272 Кбит/сек
Ширина : 720 пикселей
Высота : 304 пикселя
Соотношение сторон : 2,40:1
Частота кадров : 23,976 (24000/1001) кадра/сек
Цветовое пространство : YUV
Субдискретизация насыщенности : 4:2:0
Битовая глубина : 8 бит
Тип развёртки : Прогрессивная
Метод сжатия : С потерями
Бит/(Пиксели*Кадры) : 0.433
Размер потока : 1,59 Гбайт (73%)
Заголовок : 21.Bridges.2019.720p.BluRay.x264-AAA
Библиотека кодирования : XviD 67

Аудио #1
Идентификатор : 1
Формат : AC-3
Формат/Информация : Audio Coding 3
Коммерческое название : Dolby Digital
Идентификатор кодека : 2000
Продолжительность : 1 ч. 39 м.
Вид битрейта : Постоянный
Битрейт : 384 Кбит/сек
Каналы : 6 каналов
ChannelLayout : L R C LFE Ls Rs
Частота : 48,0 КГц
Частота кадров : 31,250 кадров/сек (1536 SPF)
Битовая глубина : 16 бит
Метод сжатия : С потерями
Размер потока : 275 Мбайт (12%)
Выравнивание : Соединение по промежуткам
Продолжительность промежутка : 32 мс. (0,77 видеокадр)
ServiceKind/String : Complete Main

Аудио #2
Идентификатор : 2
Формат : AC-3
Формат/Информация : Audio Coding 3
Коммерческое название : Dolby Digital
Идентификатор кодека : 2000
Продолжительность : 1 ч. 39 м.
Вид битрейта : Постоянный
Битрейт : 448 Кбит/сек
Каналы : 6 каналов
ChannelLayout : L R C LFE Ls Rs
Частота : 48,0 КГц
Частота кадров : 31,250 кадров/сек (1536 SPF)
Битовая глубина : 16 бит
Метод сжатия : С потерями
Размер потока : 320 Мбайт (14%)
Выравнивание : Соединение по промежуткам
Продолжительность промежутка : 32 мс. (0,77 видеокадр)
ServiceKind/String : Complete Main




Скачать 21 мост через торрент https://c.radikal.ru/c22/2002/c1/4cfe4c150312.png Скачать, смотреть онлайн 21 мост бесплантно в хорошем качестве Описание: Он охотится на преступников, которые совершили на Манхэттене дерзкое ограбление, оставив после себя 8 мертвых полицейских. А ... 10 10 8
Торрент: Зарегистрирован [2020-02-07 05:09] · скачан: 547 раз
Статус: √ проверено
Размер: 2.18 GB
Как cкачать? Как скачать 21 мост через торрент | UTorrent

% Раздел Тема Автор DL S | L
Фильмы [HD 720p, 1080p] (Хороший звук DUB, MVO) [ 5.28 GB ] 21 мост / 21 Bridges | Лицензия BD RUS | 720p bober100 Скачать
1 | 0
Фильмы 2019-2020 [DVDrip, WEB-DLRip, HDrip] (DUB, MVO) [ 1.46 GB ] 21 мост / 21 Bridges | Лицензия | BDRip Twi7ter Скачать
3 | 0
Фильмы 2019-2020 [DVDrip, WEB-DLRip, HDrip] (DUB, MVO) [ 1.46 GB ] 21 мост / 21 Bridges | Лицензия BD RUS | BDRip bober100 Скачать
2 | 0
Фильмы 2019-2020 [DVDrip, WEB-DLRip, HDrip] (DUB, MVO) [ 746 MB ] 21 мост / 21 Bridges | Лицензия BD RUS | BDRip bober100 Скачать
1 | 0
Фильмы (HD 720p, 1080p) (48-60 fps) [ 3.34 GB ] 21 мост / 21 Bridges | iTunes | 720p / 60 FPS iTunes slaventi-69 Скачать
1 | 0
Ultra HD (UHD: 2K, 4K, 8K) [ 54 GB ] 21 мост / 21 Bridges | iTunes | 2160p bober100 Скачать
1 | 0
Фильмы [HD 720p, 1080p] (Хороший звук DUB, MVO) [ 12.59 GB ] 21 мост / 21 Bridges | Лицензия BD RUS | 1080p bober100 Скачать
2 | 0



Последний раз редактировалось: Leonardo'D (2020-02-07 08:12), всего редактировалось 2 раз(а)

28-11-2019 20:33  


Отключить вcю реклaмy на сайте, в т.ч. и в плеере онлайн просмотра!

07-02-2020 08:21 21 мост Скачать торрент  

    Дорогой пользователь! Огромная просьба, поблагодарите релизера, оцените раздачу и оставьте свои комментарий, если Вы скачали 21 мост через торрент бесплатно!!
    Комментировать посты могут только пользователи прошедшие не сложную регистрацию
    Показать сообщения:    


    21 мост через торрент
    Скачать бесплатно 21 мост
    21 мост скачать торрент
    21 мост смотреть онлайн
    Cкачать фильм 21 мост бесплатно
    21 мост скачать торрент в хорошем качестве
    21 мост смотреть онлайн бесплатно в хорошем качестве
    Вы не можете начинать темы
    Вы не можете отвечать на сообщения
    Вы не можете редактировать свои сообщения
    Вы не можете удалять свои сообщения
    Вы не можете голосовать в опросах
    Вы не можете прикреплять файлы к сообщениям
    Вы можете скачивать файлы
    21 мост / 21 Bridges [2019 г., Боевик, триллер, драма, криминал, HDRip, Дубляж iTunes] смотреть онлайн, скачать торрент picoco.icu