Доктор Стрэндж

Лицензия

Добыча

Дубляж

Дом дракона

1 сезон

Тор

Дубляж

В эфире

Дубляж

Там, где раки поют

MVO

Властелин колец

1 сезон

Deluxe

pack

Рекомендуем

30

Пиратка

ВАЖНО

ВАЖНО

Ghostwire

Пиратка

jed

RePack

nioh2

RePack

RDR2

RePack

NEED FOR SPEED™ PAYBACK

RePack

скачать торрент

Кинопоиск HD

Острые козырьки 6 сезон

6 сезон

FAR CRY 6

RePack

скачать торрент

Лицензия

скачать торрент

MVO

1

1 сезон

скачать торрент

1 сезон

скачать торрент

Лицензия

  

Мое прекрасное лето с Софи / Une fille facile (Ребекка Злотовски) [2019 г., Комедия, драма, WEB-DLRip, Дубляж iTunes]

Мое прекрасное лето с Софи через торрент piratbit.org

Размер: 670 MB | Добавлен: 2 года 9 мес. назад | Торрент скачан:93 раза
Смотреть онлайн | Скачать   

07-02-2020 08:14 Мое прекрасное лето с Софи Скачать торрент  

Мое прекрасное лето с Софи / Une fille facile
Год выпуска: 2019
Страна: Франция
Жанр: Комедия, драма
Продолжительность: 01:32:10
Перевод: Дубляж iTunes
Субтитры: нет

Режиссер: Ребекка Злотовски

В ролях: Мина Фарид, Захия Дехар, Бенуа Мажимель, Нуно Лопеш, Клотильда Куро, Любна Абидар, Лакдхар Дриди, Анри-Ноэль Табари, Седрик Аппиетто, Микаэль Мильорини

Описание: Найме 16 лет, она живет в Каннах. Учебный год закончился, впереди каникулы - в компании с приехавшей из Парижа 22-летней кузиной Софи, готовой научить подросшую сестренку правилам взрослой жизни. Лови момент - ее главный девиз. А это значит - богатые и щедрые мужчины для того и существуют, чтобы делать счастливыми юных красавиц и дарить им удовольствия. Такое море соблазнов! Отказаться невозможно. Если, конечно, забыть, что за удовольствия положено платить.Автор рипа:
rating
Качество: WEB-DLRip Исходник: WEB-DL 1080p
Формат: AVI
Видео кодек: XviD
Аудио кодек: MP3
Видео: MPEG-4, 720 x 304 (2.378), 25.000 fps 790 Кбит/сек
Аудио#1: MPEG 3, 256 Кбит/сек, 2 канала, 48,0 КГц

Полное имя : C:\Users\samsung\Desktop\Фильмы для раздач\Une.Fille.Facile.2019.French.WEB-DLRip by LeonardoD.avi
Формат : AVI
Формат/Информация : Audio Video Interleave
Размер файла : 670 Мбайт
Продолжительность : 1 ч. 28 м.
Общий поток : 1059 Кбит/сек
Программа кодирования : Lavf57.41.100

Видео
Идентификатор : 0
Формат : MPEG-4 Visual
Профиль формата : Advanced Simple@L5
Настройки формата : BVOP1
Параметр BVOP формата : 1
Параметр QPel формата : Нет
Параметр GMC формата : Без точки перехода
Параметр матрицы формата : Default (H.263)
Идентификатор кодека : XVID
Идентификатор кодека/Подсказка : XviD
Продолжительность : 1 ч. 28 м.
Битрейт : 790 Кбит/сек
Ширина : 720 пикселей
Высота : 304 пикселя
Соотношение сторон : 2,40:1
Частота кадров : 25,000 кадров/сек
Цветовое пространство : YUV
Субдискретизация насыщенности : 4:2:0
Битовая глубина : 8 бит
Тип развёртки : Прогрессивная
Метод сжатия : С потерями
Бит/(Пиксели*Кадры) : 0.144
Размер потока : 500 Мбайт (75%)
Библиотека кодирования : XviD 67

Аудио
Идентификатор : 1
Формат : MPEG Audio
Версия формата : Version 1
Профиль формата : Layer 3
Настройки формата : Joint stereo
Идентификатор кодека : 55
Идентификатор кодека/Подсказка : MP3
Продолжительность : 1 ч. 28 м.
Вид битрейта : Постоянный
Битрейт : 256 Кбит/сек
Каналы : 2 канала
Частота : 48,0 КГц
Метод сжатия : С потерями
Размер потока : 162 Мбайт (24%)
Выравнивание : Соединение по промежуткам
Продолжительность промежутка : 24 мс. (0,60 видеокадр)
Заголовок : Дубляж | iTunes
Библиотека кодирования : LAME3.99.5




Скачать Мое прекрасное лето с Софи через торрент https://img15.lostpic.net/2020/02/07/b482b8ab6db0505bb5d62011e9f2992b.jpg Скачать, смотреть онлайн Мое прекрасное лето с Софи бесплантно в хорошем качестве Описание: Найме 16 лет, она живет в Каннах. Учебный год закончился, впереди каникулы - в компании с приехавшей из Парижа 22-летней кузиной ... 10 10 1
Торрент: Зарегистрирован [2020-02-07 08:14] · скачан: 93 раз
Статус: √ проверено
Размер: 670 MB
Как cкачать? Как скачать Мое прекрасное лето с Софи через торрент | UTorrent

% Раздел Тема Автор DL S | L
Фильмы (Blu-ray, BD-Remux, HDDVD) [ 20.81 GB ] Мое прекрасное лето с Софи / Une fille facile | iTunes | BD Remux 1080p bober100 Скачать
1 | 0
Фильмы 2019-2020 [DVDrip, WEB-DLRip, HDrip] (DUB, MVO) [ 1.46 GB ] Мое прекрасное лето с Софи / Une fille facile | iTunes | BDRip bober100 Скачать
1 | 0
Фильмы (WEB-DL 720p, 1080p) [ 3.27 GB ] Мое прекрасное лето с Софи / Une fille facile | iTunes | 1080p bober100 Скачать
2 | 0

28-11-2019 20:33  


Отключить вcю реклaмy на сайте, в т.ч. и в плеере онлайн просмотра!

07-02-2020 08:23 Мое прекрасное лето с Софи Скачать торрент  

    Дорогой пользователь! Огромная просьба, поблагодарите релизера, оцените раздачу и оставьте свои комментарий, если Вы скачали Мое прекрасное лето с Софи через торрент бесплатно!!
    Комментировать посты могут только пользователи прошедшие не сложную регистрацию
    Показать сообщения:    


    Мое прекрасное лето с Софи через торрент
    Скачать бесплатно Мое прекрасное лето с Софи
    Мое прекрасное лето с Софи скачать торрент
    Мое прекрасное лето с Софи смотреть онлайн
    Cкачать фильм Мое прекрасное лето с Софи бесплатно
    Мое прекрасное лето с Софи скачать торрент в хорошем качестве
    Мое прекрасное лето с Софи смотреть онлайн бесплатно в хорошем качестве
    Вы не можете начинать темы
    Вы не можете отвечать на сообщения
    Вы не можете редактировать свои сообщения
    Вы не можете удалять свои сообщения
    Вы не можете голосовать в опросах
    Вы не можете прикреплять файлы к сообщениям
    Вы можете скачивать файлы
    Мое прекрасное лето с Софи / Une fille facile [2019 г., Комедия, драма, WEB-DLRip, Дубляж iTunes] смотреть онлайн, скачать торрент picoco.icu