Ссылка на приватное зеркало нашего сайта всего за 1$. Внимание количество ограничено!!!

2 сезон

iTunes

1 сезон

1

iTunes

iTunes

iTunes

1 сезон

RePack

30

ИГРА 18+

pack

ВАЖНО

!!Акция!!

Alien_RageХит недели

RePack

MK11
pack

Забери бонус

RePack

jed

!!Акция!!

Alien_Rage

RePack

fifa19

RePack

Assassins Creed: Odyssey

RePack

NEED FOR SPEED™ PAYBACK

4 сезон

9 сезон

Бесстыжие 9 сезон

Все сериалы

все сериалы на PB.wtf

RePack

FAR CRY 5
  

Высота Порк Чоп Хилл / Pork Chop Hill (Льюис Майлстоун) [1959, драма, боевик, военный, BDRip-AVC by msltel] DVO, AVO piratbit.org

Высота Порк Чоп Хилл через торрент piratbit.org

Размер: 2.18 GB | Добавлен: 8 мес. назад | Торрент скачан:4 раза
Скачать  

07-02-2020 09:38 Высота Порк Чоп Хилл Скачать торрент  

Название: Высота Порк Чоп Хилл
Оригинальное название: Pork Chop Hill
Год выпуска: 1959
Страна: США
Жанр: драма, боевик, военный
Продолжительность: 01:37:38
Перевод: профессиональный двухголосый, авторский
Режиссер: Льюис Майлстоун
В ролях: Грегори Пек, Гарри Гуардино, Рип Торн, Джордж Пеппард, Карл Бентон Рейд, Джеймс Эдвардс, Боб Стил, Вуди Строуд, Джордж Шибата, Норман Фелл, Лью Галло, Роберт Блэйк, Клифф Кетчам, Бифф Эллиот, Чарльз Эйдмен, Мартин Ландау, Роберт Уильямс, Кен Линч, Абель Фернандез, Кевин Хэйген, Титус Меде, Чак Хейуорд, Сил Ламон, Гэвин МакЛауд, Джон МакКи, Берт Ремсен, Гарри Дин Стэнтон, Кларенс Уильям

О фильме: В фильме показана ожесточённая битва за высоту Порк Чоп Хилл между седьмой американской пехотной дивизией и союзными китайскими и северокорейскими силами в апреле 1953 года. Фильм по мотивам книги американского военного историка бригадного генерала Маршалла.



Качество: BDRip-AVC
Формат: MKV
Видео: MPEG-4 AVC, 2612 Кбит/с, 958x576, 23.976 кадр/с
Аудио 1: русский, AC3, 192 kbps, 2 ch, 48 kHz [закадровый двухголосый, НТВ+ с т/к MGM HD]
Аудио 2: русский, AC3, 192 kbps, 2 ch, 48 kHz [авторский, Сергей Визгунов]
Аудио 3: английский, AC3, 192 kbps, 2 ch, 48 kHz [оригинал]
Субтитры 1: русские
Субтитры 2: английские
Главы/чаптеры
Общее
Уникальный идентификатор : 237791074014477810150553243556967180192 (0xB2E4E51E689A18BC9F7292F21F2567A0)
Полное имя : D:\Video\Порк Чоп Хилл.1959.BDRip-AVC by msltel.mkv
Формат : Matroska
Версия формата : Version 4
Размер файла : 2,18 Гбайт
Продолжительность : 1 ч. 37 м.
Общий поток : 3186 Кбит/сек
Название фильма : Rip by msltel
Дата кодирования : UTC 2020-02-07 05:23:39
Программа кодирования : mkvmerge v8.2.0 ('World of Adventure') 64bit
Библиотека кодирования : libebml v1.3.1 + libmatroska v1.4.2

Видео
Идентификатор : 1
Формат : AVC
Формат/Информация : Advanced Video Codec
Профиль формата : High@L4.1
Настройки формата : CABAC / 9 Ref Frames
Параметр CABAC формата : Да
Параметр RefFrames формата : 9 кадров
Идентификатор кодека : V_MPEG4/ISO/AVC
Продолжительность : 1 ч. 37 м.
Битрейт : 2612 Кбит/сек
Ширина : 958 пикселей
Высота : 576 пикселей
Соотношение сторон : 5:3
Режим частоты кадров : Постоянный
Частота кадров : 23,976 (24000/1001) кадра/сек
Цветовое пространство : YUV
Субдискретизация насыщенности : 4:2:0
Битовая глубина : 8 бит
Тип развёртки : Прогрессивная
Бит/(Пиксели*Кадры) : 0.197
Размер потока : 1,78 Гбайт (82%)
Библиотека кодирования : x264 core 157 r2969 d4099dd
Настройки программы : cabac=1 / ref=9 / deblock=1:-2:-1 / analyse=0x3:0x113 / me=umh / subme=9 / psy=1 / psy_rd=1.00:0.15 / mixed_ref=1 / me_range=32 / chroma_me=1 / trellis=1 / 8x8dct=1 / cqm=0 / deadzone=21,11 / fast_pskip=0 / chroma_qp_offset=-3 / threads=6 / lookahead_threads=1 / sliced_threads=0 / nr=0 / decimate=1 / interlaced=0 / bluray_compat=0 / constrained_intra=0 / bframes=8 / b_pyramid=2 / b_adapt=2 / b_bias=0 / direct=1 / weightb=1 / open_gop=0 / weightp=2 / keyint=230 / keyint_min=23 / scenecut=40 / intra_refresh=0 / rc_lookahead=40 / rc=crf / mbtree=0 / crf=19.7 / qcomp=0.60 / qpmin=0 / qpmax=69 / qpstep=4 / vbv_maxrate=50000 / vbv_bufsize=62500 / crf_max=0.0 / nal_hrd=none / filler=0 / ip_ratio=1.40 / pb_ratio=1.30 / aq=1:1.00
Язык : English
Default : Да
Forced : Нет

Аудио #1
Идентификатор : 2
Формат : AC-3
Формат/Информация : Audio Coding 3
Коммерческое название : Dolby Digital
Идентификатор кодека : A_AC3
Продолжительность : 1 ч. 37 м.
Вид битрейта : Постоянный
Битрейт : 192 Кбит/сек
Каналы : 2 канала
ChannelLayout : L R
Частота : 48,0 КГц
Частота кадров : 31,250 кадров/сек (1536 SPF)
Метод сжатия : С потерями
Размер потока : 134 Мбайт (6%)
Заголовок : DVO НТВ+ с т/к MGM HD
Язык : Russian
ServiceKind/String : Complete Main
Default : Да
Forced : Нет

Аудио #2
Идентификатор : 3
Формат : AC-3
Формат/Информация : Audio Coding 3
Коммерческое название : Dolby Digital
Идентификатор кодека : A_AC3
Продолжительность : 1 ч. 37 м.
Вид битрейта : Постоянный
Битрейт : 192 Кбит/сек
Каналы : 2 канала
ChannelLayout : L R
Частота : 48,0 КГц
Частота кадров : 31,250 кадров/сек (1536 SPF)
Метод сжатия : С потерями
Размер потока : 134 Мбайт (6%)
Заголовок : Сергей Визгунов
Язык : Russian
ServiceKind/String : Complete Main
Default : Нет
Forced : Нет

Аудио #3
Идентификатор : 4
Формат : AC-3
Формат/Информация : Audio Coding 3
Коммерческое название : Dolby Digital
Идентификатор кодека : A_AC3
Продолжительность : 1 ч. 37 м.
Вид битрейта : Постоянный
Битрейт : 192 Кбит/сек
Каналы : 2 канала
ChannelLayout : L R
Частота : 48,0 КГц
Частота кадров : 31,250 кадров/сек (1536 SPF)
Метод сжатия : С потерями
Размер потока : 134 Мбайт (6%)
Заголовок : original
Язык : English
ServiceKind/String : Complete Main
Default : Нет
Forced : Нет

Текст #1
Идентификатор : 5
Формат : UTF-8
Идентификатор кодека : S_TEXT/UTF8
Идентификатор кодека/Информация : UTF-8 Plain Text
Продолжительность : 1 ч. 37 м.
Битрейт : 86 бит/сек
ElementCount : 885
Размер потока : 62,0 Кбайт (0%)
Заголовок : русские
Язык : Russian
Default : Нет
Forced : Нет

Текст #2
Идентификатор : 6
Формат : UTF-8
Идентификатор кодека : S_TEXT/UTF8
Идентификатор кодека/Информация : UTF-8 Plain Text
Продолжительность : 1 ч. 35 м.
Битрейт : 52 бит/сек
ElementCount : 869
Размер потока : 36,3 Кбайт (0%)
Заголовок : английские
Язык : English
Default : Нет
Forced : Нет

Меню
00:00:00.000 : en:Chapter 01
00:02:10.880 : en:Chapter 02
00:07:14.434 : en:Chapter 03
00:14:19.942 : en:Chapter 04
00:24:02.065 : en:Chapter 05
00:34:44.707 : en:Chapter 06
00:42:48.190 : en:Chapter 07
00:50:21.768 : en:Chapter 08
01:01:14.212 : en:Chapter 09
01:12:39.271 : en:Chapter 10
01:26:59.088 : en:Chapter 11
piratbit.org



Скачать Высота Порк Чоп Хилл через торрент https://c.radikal.ru/c01/2002/83/b48709de2636.jpg Скачать фильм Высота Порк Чоп Хилл через торрент бесплантно в хорошем качестве О фильме: В фильме показана ожесточённая битва за высоту Порк Чоп Хилл между седьмой американской пехотной дивизией и союзными китайскими и ... 10 10 1
Торрент: Зарегистрирован [2020-02-07 09:38] · скачан: 4 раз
Статус: √ проверено
Размер: 2.18 GB
Как cкачать? Как скачать Высота Порк Чоп Хилл через торрент | qTorrent

% Раздел Тема Автор DL S | L
Классика зарубежного кино [ 11.86 GB ] Высота Порк Чоп Хилл / Pork Chop Hill [1959 военный BDRip 1080p by msltel] DVO AVO msltel Скачать
1 | 0
Классика зарубежного кино [ 4.12 GB ] Высота Порк Чоп Хилл / Pork Chop Hill [1959 военный BDRip 720p by msltel] DVO AVO msltel Скачать
1 | 0

28-11-2019 20:33  

Отключить всю рекламу на сайте

    Дорогой пользователь! Огромная просьба, поблагодарите релизера, оцените раздачу и оставьте свои комментарий, если Вы скачали Высота Порк Чоп Хилл через торрент бесплатно! Внесите свою лепту в развитие PiratBit!
    Комментировать посты могут только пользователи прошедшие не сложную регистрацию
    Показать сообщения:    

    Высота Порк Чоп Хилл через торрент
    Скачать бесплатно Высота Порк Чоп Хилл
    Высота Порк Чоп Хилл скачать торрент
    Высота Порк Чоп Хилл смотреть онлайн
    Cкачать фильм Высота Порк Чоп Хилл бесплатно
    Высота Порк Чоп Хилл скачать торрент в хорошем качестве
    Высота Порк Чоп Хилл смотреть онлайн бесплатно в хорошем качестве


    Вы не можете начинать темы
    Вы не можете отвечать на сообщения
    Вы не можете редактировать свои сообщения
    Вы не можете удалять свои сообщения
    Вы не можете голосовать в опросах
    Вы не можете прикреплять файлы к сообщениям
    Вы можете скачивать файлы