Достать ножи: Стеклянная луковица

MVO

Добыча

Дубляж

Уэнсдэй

1 сезон

Тор

Дубляж

13 клиническая

1 сезон

Жестокая ночь

MVO

Одни из нас

1 сезон

Deluxe

pack

Рекомендуем

30

Пиратка

ВАЖНО

ВАЖНО

Ghostwire

Пиратка

jed

RePack

nioh2

RePack

RDR2

RePack

NEED FOR SPEED™ PAYBACK

RePack

скачать торрент

Кинопоиск HD

Острые козырьки 6 сезон

6 сезон

FAR CRY 6

RePack

скачать торрент

Лицензия

скачать торрент

MVO

1

1 сезон

скачать торрент

1 сезон

скачать торрент

Лицензия

  

Достать ножи / Knives Out (Райан Джонсон) [2019, детектив, комедия, драма, криминал, UHD BDRemux 2160p, (Dolby Vision TV)] Дубляж [iTunes]

Достать ножи через торрент piratbit.org

Размер: 55.91 GB | Добавлен: 2 года 11 мес. назад | Торрент скачан:110 раз
Смотреть онлайн | Скачать | Поддержите нас   

07-02-2020 13:14 Достать ножи Скачать торрент  

Достать ножи | Knives Out
Год выпуска: 2019
Страна: США
Выпущено: Lionsgate, Media Rights Capital (MRC), T-Street See
Жанр: детектив, комедия, драма, криминал
Продолжительность: 02:10:12
Перевод: Дублированный | iTunes
Субтитры: Русские (Forced, отдельно)

Режиссер: Райан Джонсон

rating

В ролях:

Дэниэл Крэйг (Benoit Blanc), Ана де Армас (Marta Cabrera), Крис Эванс (Ransom Drysdale), Джейми Ли Кёртис (Linda Drysdale), Майкл Шеннон (Walt Thrombey), Дон Джонсон (Richard Drysdale), Тони Коллетт (Joni Thrombey), Лакит Стэнфилд (Lieutenant Elliott), Кристофер Пламмер (Harlan Thrombey), Кэтрин Лэнгфорд (Meg Thrombey), Джейден Мартелл (Jacob Thrombey), Рики Линдхоум (Donna Thrombey)
Описание: События фильма «Достать ножи» начинают свое развитие после юбилея востребованного автора, работающего в жанре криминального романа. Являясь популярным писателем, он привлекает к своей персоне много внимания. Но чаще всего автор получает восторженные отзывы от читателей и критиков. Несмотря на это, у него есть враги. Сразу же после юбилея тело писателя обнаруживают случайные прохожие. Они вызывают полицейских на место преступления. Вскоре после этого начинается официальное расследование, которое поручают очень дотошному, но харизматичному детективу. Он сразу же с головой погружается в изучение материалов дела и приходит к выводу, что оно может быть одним из самых сложных в его непростой карьере. Ему нужно найти способ разорвать сотканную паутину из лжи и хитрых уловок, которой его пытаются опутать члены семейства убитого писателя. Впереди главного героя ждет множество скелетов в шкафах и мрачных тайн.

Качество: UHD BDRemux 2160p | Dolby Vision TV
Формат: MP4

Видео: 3840x2160 at 23.976 fps, MPEG-H HEVC HDR Video, 55500 kbps avg
Аудио: 48 kHz, AC3, 5.1, 384 Kbps | iTunes | RUS |
Данный вид релизов (контейнер MP4) предназначен для встроенного в ТВ (соответственно, с поддержкой DV) плеер.
Т.Е. Можно использовать как USB flash/HDD, так и DLNA / Plex - подобные сервисы/программы. дополнительный-внешний плеер не обязателен.

Внимание!
На моделях LG 2016 возможны сюрпризы "через раз", 2017-2018 должно идти без сюрпризов )
скриншот  скриншот  скриншот  скриншот  скриншот  

General
Complete name : E:Video111Knives.Out.2019.D.MVO.AVO.BDREMUX.2160p.HDR.DV_TV.seleZenKnives.Out.2019.D.MVO.AVO.BDREMUX.2160p.HDR.DV_TV.seleZen.mp4
Format : MPEG-4
Format profile : Base Media / Version 2
Codec ID : mp42 (mp42/dby1/isom)
File size : 55.9 GiB
Duration : 2 h 10 min
Overall bit rate : 61.5 Mb/s
Encoded date : UTC 2020-02-19 23:04:34
Tagged date : UTC 2020-02-19 23:04:34

Video #1
ID : 1
Format : HEVC
Format/Info : High Efficiency Video Coding
Format profile : Main 10@L5.1@High
HDR format : SMPTE ST 2086, HDR10 compatible
Codec ID : hev1
Codec ID/Info : High Efficiency Video Coding
Duration : 2 h 10 min
Bit rate : 55.5 Mb/s
Width : 3 840 pixels
Height : 2 160 pixels
Display aspect ratio : 16:9
Frame rate mode : Constant
Frame rate : 23.976 (24000/1001) FPS
Color space : YUV
Chroma subsampling : 4:2:0 (Type 2)
Bit depth : 10 bits
Bits/(Pixel*Frame) : 0.279
Stream size : 50.5 GiB (90%)
Default : No
Encoded date : UTC 2020-02-19 23:04:34
Tagged date : UTC 2020-02-19 23:04:34
Color range : Limited
Color primaries : BT.2020
Transfer characteristics : PQ
Matrix coefficients : BT.2020 non-constant
Mastering display color pri : BT.2020
Mastering display luminance : min: 0.0001 cd/m2, max: 1000 cd/m2
Maximum Content Light Level : 267 cd/m2
Maximum Frame-Average Light : 89 cd/m2
Codec configuration box : hvcC

Video #2
ID : 2
Format : HEVC
Format/Info : High Efficiency Video Coding
Format profile : Main 10@L5.1@High
HDR format : Dolby Vision, Version 1.0, dvhe.07.06, EL+RPU / SMPTE ST 2086, HDR10 compatible
Codec ID : dvhe
Codec ID/Info : High Efficiency Video Coding with Dolby Vision
Duration : 2 h 10 min
Bit rate : 5 594 kb/s
Width : 1 920 pixels
Height : 1 080 pixels
Display aspect ratio : 16:9
Frame rate mode : Constant
Frame rate : 23.976 (24000/1001) FPS
Color space : YUV
Chroma subsampling : 4:2:0 (Type 2)
Bit depth : 10 bits
Bits/(Pixel*Frame) : 0.113
Stream size : 5.09 GiB (9%)
Default : No
Encoded date : UTC 2020-02-19 23:04:34
Tagged date : UTC 2020-02-19 23:04:34
Color range : Limited
Color primaries : BT.2020
Transfer characteristics : PQ
Matrix coefficients : BT.2020 non-constant
Mastering display color pri : BT.2020
Mastering display luminance : min: 0.0001 cd/m2, max: 1000 cd/m2
Codec configuration box : hvcC+dvcC

Audio
ID : 3
Format : AC-3
Format/Info : Audio Coding 3
Commercial name : Dolby Digital
Codec ID : ac-3
Duration : 2 h 10 min
Bit rate mode : Constant
Bit rate : 384 kb/s
Channel(s) : 6 channels
Channel layout : L R C LFE Ls Rs
Sampling rate : 48.0 kHz
Frame rate : 31.250 FPS (1536 SPF)
Compression mode : Lossy
Stream size : 358 MiB (1%)
Language : Russian
Service kind : Complete Main
Default : No
Encoded date : UTC 2020-02-19 23:04:34
Tagged date : UTC 2020-02-19 23:04:34




Скачать Достать ножи через торрент https://img15.lostpic.net/2020/02/15/9617a6790b5afdc1e4e34085923111d9.jpg Скачать, смотреть онлайн Достать ножи бесплантно в хорошем качестве Описание: События фильма «Достать ножи» начинают свое развитие после юбилея востребованного автора, работающего в жанре криминального ... 10 10 8
Торрент: Зарегистрирован [2020-02-20 00:48] · скачан: 110 раз
Статус: √ проверено
Размер: 55.91 GB
Как cкачать? Как скачать Достать ножи через торрент | UTorrent

% Раздел Тема Автор DL S | L
Фильмы 2019-2020 [DVDrip, WEB-DLRip, HDrip] (DUB, MVO) [ 2.12 GB ] Достать ножи / Knives Out | Лицензия | BDRip Twi7ter Скачать
23 | 1
Фильмы 2019-2020 [DVDrip, WEB-DLRip, HDrip] (DUB, MVO) [ 1.46 GB ] Достать ножи / Knives Out | Лицензия | BDRip Twi7ter Скачать
18 | 0



Последний раз редактировалось: bober100 (2020-02-20 00:48), всего редактировалось 1 раз

28-11-2019 20:33  


Отключить вcю реклaмy на сайте, в т.ч. и в плеере онлайн просмотра!

    Дорогой пользователь! Огромная просьба, поблагодарите релизера, оцените раздачу и оставьте свои комментарий, если Вы скачали Достать ножи через торрент бесплатно!!
    Комментировать посты могут только пользователи прошедшие не сложную регистрацию
    Показать сообщения:    


    Достать ножи через торрент
    Скачать бесплатно Достать ножи
    Достать ножи скачать торрент
    Достать ножи смотреть онлайн
    Cкачать фильм Достать ножи бесплатно
    Достать ножи скачать торрент в хорошем качестве
    Достать ножи смотреть онлайн бесплатно в хорошем качестве
    Вы не можете начинать темы
    Вы не можете отвечать на сообщения
    Вы не можете редактировать свои сообщения
    Вы не можете удалять свои сообщения
    Вы не можете голосовать в опросах
    Вы не можете прикреплять файлы к сообщениям
    Вы можете скачивать файлы
    Достать ножи / Knives Out [2019, детектив, комедия, драма, криминал, UHD BDRemux 2160p, ] Дубляж [iTunes] смотреть онлайн, скачать торрент picoco.icu